{ISO | Võ Thuật] Return of the Eighteen Bronzemen 1976 1080p Blu-ray AVC LPCM 2.0

Thảo luận trong 'Bluray nguyên gốc' bắt đầu bởi adm820, 18/3/22.

  1. adm820

    adm820 Moderator Thành viên BQT

    Tham gia ngày:
    1/12/10
    Bài viết:
    21,546
    Đã được cảm ơn:
    410,763
    Giới tính:
    Nam
    [​IMG]

    The much-reviled Qing government decide to eradicate any opposition to their rulership by attacking pro-Ming families in the kingdom. One such attack sees an influential official killed, though his wife and son manage to escape thanks to the intervention of a close ally. While on the run, the son, Shaolung, is aided by his father's close friend (Jack Long) who teaches the young boy the basics of kung-fu. As time passes, the renegades must once again move on and evade capture by the Qing army. However, it is decided that the safest place for Shaolung to hide would be in the Ming-friendly Shaolin Temple where he could also further his knowledge of kung-fu. Once there, the boy finds the severe, disciplined lifestyle hard to cope with and, despite his best efforts, he lags behind his fellow pupils. Over time he does make a couple of close friends and it is their encouragement that drives him to reach his goals. Now a young man, Shaolung (Tien Peng) gradually develops into a formidable fighter and concentrates his sights on leaving Shaolin to avenge his father's death. However, to 'graduate' from Shaolin means to defeat the Shaolin bronzemen and a series of similarly fiendish tests. The first attempt to conquer these trials is unsuccessful, but Shaolung is spurred on by his straight-talking friend (Wong) and finally leaves through Shaolin's hallowed gates after a final tremendous effort. Once through the dreaded chambers, the Shaolin disciples will have the Shaolin crest of the dragon and tiger burnt into their forearms by lifting a huge bronze pot. Outside, our heroes meet up with more patriots. Shao Lung meets his uncle who tells him the true story of his past and gives him half of a royal seal, the other half belonging to his (unknown) future wife. Once on his journey again his constantly stalked by a young "man" (actually a woman in disguise), Miss Lu. After defending him from an assassination attempt, Miss Lu constantly claims how Shao Lung owes her his life, though he is still under the impression she is still a man (a typical recurring plot device in some martial arts films though it is obvious it is a woman). After another failed attempt at Shao Lung, he manages to come across Miss Lu’s half of the royal seal thus revealing she is a woman and also his wife-to-be. Shao Lung and Miss Lu meet up with Brother Wan, and in turn they meet with Brother Ta-Chi who managed to beat the Bronzemen and leave Shaolin. Ta-Chi is a mole who was placed in Shaolin by the Qings to learn kung fu and eventually kill Shao Lung. Shao Lung and Brother Wan manage to kill their former brother in self-defense, and with Miss Lu, move on to kill the Manchu general.

    PHP:
    Disc Title:     FEARLESS SHAOLIN DISC TWO
    Disc Label
    :     FEARLESS SHAOLIN DISC TWO
    Disc Size
    :      48,633,757,081 bytes
    Protection
    :     AACS
    BDInfo
    :         0.7.5.8

    Notes
    :         

    BDINFO HOME:
      
    Cinema Squid (old)
        
    http://www.cinemasquid.com/blu-ray/tools/bdinfo
      
    UniqProject GitHub (new)
       
    https://github.com/UniqProject/BDInfo

    INCLUDES FORUMS REPORT FOR:
      
    AVS Forum Blu-ray Audio and Video Specifications Thread
        http
    ://www.avsforum.com/avs-vb/showthread.php?t=1155731


    ********************
    PLAYLIST00007.MPLS
    ********************

    <--- 
    BEGIN FORUMS PASTE --->
    [
    code]
                                                                                                                    
    Total   Video                                             
    Title                                                           Codec   Length  Movie Size      Disc Size       Bitrate Bitrate Main Audio Track                          Secondary Audio Track
    -----                                                           ------  ------- --------------  --------------  ------- ------- ------------------                        ---------------------
    00007.MPLS                                                      AVC     1:41:00 13,149,662,592  48,633,757,081  17.36   13.00   LPCM 1.0 768Kbps (48kHz/16-bit)           
    [/
    code]

    [
    code]

    DISC INFO:

    Disc Title:     FEARLESS SHAOLIN DISC TWO
    Disc Label
    :     FEARLESS SHAOLIN DISC TWO
    Disc Size
    :      48,633,757,081 bytes
    Protection
    :     AACS
    BDInfo
    :         0.7.5.8

    PLAYLIST REPORT
    :

    Name:                   00007.MPLS
    Length
    :                 1:41:00.512 (h:m:s.ms)
    Size:                   13,149,662,592 bytes
    Total Bitrate
    :          17.36 Mbps

    VIDEO
    :

    Codec                   Bitrate             Description     
    -----                   -------             -----------     
    MPEG-4 AVC Video        13000 kbps          1080p 23.976 fps 16:High Profile 4.1

    AUDIO
    :

    Codec                           Language        Bitrate         Description     
    -----                           --------        -------         -----------     
    LPCM Audio                      Chinese         768 kbps        1.0 48 kHz /   768 kbps 16-bit
    LPCM Audio                      English         768 kbps        1.0 
    48 kHz /   768 kbps 16-bit

    SUBTITLES
    :

    Codec                           Language        Bitrate         Description     
    -----                           --------        -------         -----------     
    Presentation Graphics           English         29.010 kbps                     
    Presentation Graphics           English         0.671 kbps                     

    FILES
    :

    Name            Time In         Length          Size            Total Bitrate   
    ----            -------         ------          ----            -------------   
    00007.M2TS      0:00:00.000     1:41:00.512     13,149,662,592  17,358         

    CHAPTERS
    :

    Number          Time In         Length          Avg Video Rate  Max 1-Sec Rate  Max 1-Sec Time  Max 5-Sec Rate  Max 5-Sec Time  Max 10Sec Rate  Max 10Sec Time  Avg Frame Size  Max Frame Size  Max Frame Time 
    ------          -------         ------          --------------  --------------  --------------  --------------  --------------  --------------  --------------  --------------  --------------  -------------- 
    1               0:00:00.000     0:10:20.077     14,032 kbps     26,318 kbps     00:08:02.356    23,901 kbps     00:09:08.631    22,835 kbps     00:00:57.974    0 bytes         351,962 bytes   00:09:01.040   
    2               0
    :10:20.077     0:10:24.373     13,540 kbps     28,202 kbps     00:11:04.163    26,748 kbps     00:11:00.159    26,015 kbps     00:10:55.196    0 bytes         279,315 bytes   00:11:05.122   
    3               0
    :20:44.451     0:10:27.251     11,914 kbps     26,827 kbps     00:26:08.942    24,736 kbps     00:26:16.908    23,514 kbps     00:27:08.877    0 bytes         318,630 bytes   00:23:06.385   
    4               0
    :31:11.703     0:07:11.806     15,452 kbps     28,427 kbps     00:35:35.049    25,267 kbps     00:31:12.579    24,075 kbps     00:37:14.190    0 bytes         337,376 bytes   00:35:27.083   
    5               0
    :38:23.509     0:11:05.706     9,860 kbps      27,608 kbps     00:40:34.098    22,714 kbps     00:44:20.908    16,183 kbps     00:40:27.967    0 bytes         340,193 bytes   00:47:54.079   
    6               0
    :49:29.216     0:10:22.413     14,645 kbps     31,734 kbps     00:50:32.779    28,706 kbps     00:50:32.529    27,426 kbps     00:50:32.612    0 bytes         397,971 bytes   00:50:28.066   
    7               0
    :59:51.629     0:10:46.354     15,076 kbps     30,600 kbps     01:00:24.495    29,365 kbps     01:00:21.451    28,115 kbps     01:00:21.451    0 bytes         378,522 bytes   01:05:25.254   
    8               1
    :10:37.983     0:10:57.740     11,085 kbps     28,618 kbps     01:14:44.563    27,521 kbps     01:14:43.812    26,687 kbps     01:14:42.978    0 bytes         290,197 bytes   01:12:40.731   
    9               1
    :21:35.724     0:11:12.338     10,771 kbps     29,585 kbps     01:29:21.272    27,022 kbps     01:21:48.320    26,283 kbps     01:21:46.526    0 bytes         350,110 bytes   01:32:42.974   
    10              1
    :32:48.062     0:08:12.450     15,289 kbps     28,857 kbps     01:39:41.517    26,472 kbps     01:39:55.656    25,986 kbps     01:39:50.275    0 bytes         367,013 bytes   01:37:14.954   

    STREAM DIAGNOSTICS
    :

    File            PID             Type            Codec           Language                Seconds                 Bitrate                 Bytes           Packets         
    ----            ---             ----            -----           --------                --------------          --------------          -------------   -----           
    00007.M2TS      4113 (0x1011)   0x1B            AVC                                     6060.429                13,000                  9,848,252,505   53,609,783     
    00007.M2TS      4352 
    (0x1100)   0x80            LPCM            zho (Chinese)           6060.429                1,542                   1,168,458,616   7,272,564       
    00007.M2TS      4353 
    (0x1101)   0x80            LPCM            eng (English)           6060.429                1,542                   1,168,458,616   7,272,564       
    00007.M2TS      4608 
    (0x1200)   0x90            PGS             eng (English)           6060.429                29                      21,976,803      127,020         
    00007.M2TS      4609 
    (0x1201)   0x90            PGS             eng (English)           6060.429                1                       508,583         2,870           

    [/code]
    <---- 
    END FORUMS PASTE ---->

    QUICK SUMMARY:

    Disc TitleFEARLESS SHAOLIN DISC TWO
    Disc Label
    FEARLESS SHAOLIN DISC TWO
    Disc Size
    48,633,757,081 bytes
    Protection
    AACS
    Playlist
    00007.MPLS
    Size
    13,149,662,592 bytes
    Length
    1:41:00.512
    Total Bitrate
    17.36 Mbps
    Video
    MPEG-4 AVC Video 13000 kbps 1080p 23.976 fps 16:High Profile 4.1
    Audio
    Chinese LPCM Audio 1.0 48 kHz /   768 kbps 16-bit
    Audio
    English LPCM Audio 1.0 48 kHz /   768 kbps 16-bit
    Subtitle
    English 29.010 kbps
    Subtitle
    English 0.671 kbps


    ********************
    PLAYLIST00005.MPLS
    ********************

    <--- 
    BEGIN FORUMS PASTE --->
    [
    code]
                                                                                                                    
    Total   Video                                             
    Title                                                           Codec   Length  Movie Size      Disc Size       Bitrate Bitrate Main Audio Track                          Secondary Audio Track
    -----                                                           ------  ------- --------------  --------------  ------- ------- ------------------                        ---------------------
    00005.MPLS                                                      AVC     1:35:03 17,259,249,216  48,633,757,081  24.21   20.96   LPCM 1.0 768Kbps (48kHz/16-bit)           
    [/
    code]

    [
    code]

    DISC INFO:

    Disc Title:     FEARLESS SHAOLIN DISC TWO
    Disc Label
    :     FEARLESS SHAOLIN DISC TWO
    Disc Size
    :      48,633,757,081 bytes
    Protection
    :     AACS
    BDInfo
    :         0.7.5.8

    PLAYLIST REPORT
    :

    Name:                   00005.MPLS
    Length
    :                 1:35:03.406 (h:m:s.ms)
    Size:                   17,259,249,216 bytes
    Total Bitrate
    :          24.21 Mbps

    VIDEO
    :

    Codec                   Bitrate             Description     
    -----                   -------             -----------     
    MPEG-4 AVC Video        20962 kbps          1080p 23.976 fps 16:High Profile 4.1

    AUDIO
    :

    Codec                           Language        Bitrate         Description     
    -----                           --------        -------         -----------     
    LPCM Audio                      Chinese         768 kbps        1.0 48 kHz /   768 kbps 16-bit
    Dolby Digital Audio             English         320 kbps        2.0 
    48 kHz /   320 kbps DN -31dB

    SUBTITLES
    :

    Codec                           Language        Bitrate         Description     
    -----                           --------        -------         -----------     
    Presentation Graphics           English         32.011 kbps                     

    FILES
    :

    Name            Time In         Length          Size            Total Bitrate   
    ----            -------         ------          ----            -------------   
    00006.M2TS      0:00:00.000     1:35:03.406     17,259,249,216  24,209         

    CHAPTERS
    :

    Number          Time In         Length          Avg Video Rate  Max 1-Sec Rate  Max 1-Sec Time  Max 5-Sec Rate  Max 5-Sec Time  Max 10Sec Rate  Max 10Sec Time  Avg Frame Size  Max Frame Size  Max Frame Time 
    ------          -------         ------          --------------  --------------  --------------  --------------  --------------  --------------  --------------  --------------  --------------  -------------- 
    1               0:00:00.000     0:10:52.693     20,740 kbps     49,945 kbps     00:00:03.628    40,612 kbps     00:00:03.461    33,812 kbps     00:00:02.335    0 bytes         736,983 bytes   00:10:52.652   
    2               0
    :10:52.693     0:11:32.525     22,518 kbps     47,477 kbps     00:15:46.487    39,829 kbps     00:16:48.757    38,078 kbps     00:16:48.340    0 bytes         786,671 bytes   00:11:04.372   
    3               0
    :22:25.218     0:08:30.968     19,489 kbps     35,648 kbps     00:26:11.736    31,046 kbps     00:26:09.859    28,303 kbps     00:27:20.347    0 bytes         776,239 bytes   00:26:09.901   
    4               0
    :30:56.187     0:08:29.342     22,880 kbps     36,408 kbps     00:34:53.883    31,778 kbps     00:36:59.467    30,231 kbps     00:37:19.820    0 bytes         670,072 bytes   00:35:19.325   
    5               0
    :39:25.529     0:09:49.839     18,383 kbps     37,797 kbps     00:47:33.058    33,683 kbps     00:47:29.763    31,495 kbps     00:47:24.925    0 bytes         621,698 bytes   00:46:50.849   
    6               0
    :49:15.369     0:11:41.992     22,597 kbps     52,433 kbps     01:00:55.526    39,995 kbps     01:00:06.144    37,962 kbps     00:59:40.618    0 bytes         802,621 bytes   01:00:56.402   
    7               1
    :00:57.362     0:09:04.669     20,098 kbps     39,902 kbps     01:07:54.320    32,547 kbps     01:06:49.964    28,759 kbps     01:08:30.898    0 bytes         756,276 bytes   01:08:05.289   
    8               1
    :10:02.031     0:09:24.230     18,539 kbps     44,383 kbps     01:16:32.963    29,137 kbps     01:11:46.302    28,067 kbps     01:11:27.533    0 bytes         720,307 bytes   01:11:51.265   
    9               1
    :19:26.261     0:15:37.144     22,086 kbps     51,314 kbps     01:32:19.951    41,287 kbps     01:32:19.784    38,843 kbps     01:34:31.248    0 bytes         855,512 bytes   01:32:11.234   

    STREAM DIAGNOSTICS
    :

    File            PID             Type            Codec           Language                Seconds                 Bitrate                 Bytes           Packets         
    ----            ---             ----            -----           --------                --------------          --------------          -------------   -----           
    00006.M2TS      4113 (0x1011)   0x1B            AVC                                     5703.323                20,962                  14,944,149,571  81,299,924     
    00006.M2TS      4352 
    (0x1100)   0x80            LPCM            zho (Chinese)           5703.323                1,542                   1,099,616,484   6,844,086       
    00006.M2TS      4353 
    (0x1101)   0x81            AC3             eng (English)           5703.323                320                     228,135,680     1,425,848       
    00006.M2TS      4608 
    (0x1200)   0x90            PGS             eng (English)           5703.323                32                      22,821,432      130,999         

    [/code]
    <---- 
    END FORUMS PASTE ---->

    QUICK SUMMARY:

    Disc TitleFEARLESS SHAOLIN DISC TWO
    Disc Label
    FEARLESS SHAOLIN DISC TWO
    Disc Size
    48,633,757,081 bytes
    Protection
    AACS
    Playlist
    00005.MPLS
    Size
    17,259,249,216 bytes
    Length
    1:35:03.406
    Total Bitrate
    24.21 Mbps
    Video
    MPEG-4 AVC Video 20962 kbps 1080p 23.976 fps 16:High Profile 4.1
    Audio
    Chinese LPCM Audio 1.0 48 kHz /   768 kbps 16-bit
    Audio
    English Dolby Digital Audio 2.0 48 kHz /   320 kbps DN -31dB
    Subtitle
    English 32.011 kbps


    ********************
    PLAYLIST00006.MPLS
    ********************

    <--- 
    BEGIN FORUMS PASTE --->
    [
    code]
                                                                                                                    
    Total   Video                                             
    Title                                                           Codec   Length  Movie Size      Disc Size       Bitrate Bitrate Main Audio Track                          Secondary Audio Track
    -----                                                           ------  ------- --------------  --------------  ------- ------- ------------------                        ---------------------
    00006.MPLS                                                      AVC     1:32:06 17,987,308,992  48,633,757,081  26.04   20.96   LPCM 1.0 768Kbps (48kHz/16-bit)           
    [/
    code]

    [
    code]

    DISC INFO:

    Disc Title:     FEARLESS SHAOLIN DISC TWO
    Disc Label
    :     FEARLESS SHAOLIN DISC TWO
    Disc Size
    :      48,633,757,081 bytes
    Protection
    :     AACS
    BDInfo
    :         0.7.5.8

    PLAYLIST REPORT
    :

    Name:                   00006.MPLS
    Length
    :                 1:32:06.437 (h:m:s.ms)
    Size:                   17,987,308,992 bytes
    Total Bitrate
    :          26.04 Mbps

    VIDEO
    :

    Codec                   Bitrate             Description     
    -----                   -------             -----------     
    MPEG-4 AVC Video        20958 kbps          1080p 23.976 fps 16:High Profile 4.1

    AUDIO
    :

    Codec                           Language        Bitrate         Description     
    -----                           --------        -------         -----------     
    LPCM Audio                      Chinese         768 kbps        1.0 48 kHz /   768 kbps 16-bit
    LPCM Audio                      English         768 kbps        1.0 
    48 kHz /   768 kbps 16-bit
    Dolby Digital Audio             English         320 kbps        2.0 
    48 kHz /   320 kbps DN -31dB

    SUBTITLES
    :

    Codec                           Language        Bitrate         Description     
    -----                           --------        -------         -----------     
    Presentation Graphics           English         20.663 kbps                     
    Presentation Graphics           English         1.895 kbps                     

    FILES
    :

    Name            Time In         Length          Size            Total Bitrate   
    ----            -------         ------          ----            -------------   
    00010.M2TS      0:00:00.000     1:32:06.437     17,987,308,992  26,038         

    CHAPTERS
    :

    Number          Time In         Length          Avg Video Rate  Max 1-Sec Rate  Max 1-Sec Time  Max 5-Sec Rate  Max 5-Sec Time  Max 10Sec Rate  Max 10Sec Time  Avg Frame Size  Max Frame Size  Max Frame Time 
    ------          -------         ------          --------------  --------------  --------------  --------------  --------------  --------------  --------------  --------------  --------------  -------------- 
    1               0:00:00.000     0:10:00.474     17,504 kbps     47,462 kbps     00:06:58.918    30,522 kbps     00:07:30.575    28,624 kbps     00:07:31.951    0 bytes         827,617 bytes   00:03:36.424   
    2               0
    :10:00.474     0:11:14.131     21,093 kbps     44,786 kbps     00:15:34.558    39,267 kbps     00:15:59.124    35,428 kbps     00:15:58.165    0 bytes         831,425 bytes   00:21:14.564   
    3               0
    :21:14.606     0:11:16.384     19,946 kbps     44,376 kbps     00:27:56.966    36,566 kbps     00:27:54.339    33,902 kbps     00:22:16.918    0 bytes         866,938 bytes   00:30:56.479   
    4               0
    :32:30.990     0:10:16.282     20,668 kbps     40,554 kbps     00:39:56.143    35,363 kbps     00:36:47.997    33,669 kbps     00:36:43.034    0 bytes         833,613 bytes   00:39:41.212   
    5               0
    :42:47.273     0:10:52.401     21,836 kbps     36,622 kbps     00:45:38.861    32,666 kbps     00:48:38.206    31,100 kbps     00:49:48.360    0 bytes         689,114 bytes   00:45:02.908   
    6               0
    :53:39.674     0:09:39.704     18,819 kbps     37,168 kbps     00:58:08.067    31,416 kbps     00:58:07.025    30,352 kbps     01:01:06.871    0 bytes         555,462 bytes   00:56:10.325   
    7               1
    :03:19.378     0:09:43.124     18,913 kbps     40,697 kbps     01:10:07.703    36,558 kbps     01:10:07.578    34,255 kbps     01:05:18.289    0 bytes         584,548 bytes   01:11:18.357   
    8               1
    :13:02.503     0:09:14.345     22,194 kbps     41,937 kbps     01:21:28.300    36,388 kbps     01:22:07.756    35,726 kbps     01:22:02.751    0 bytes         618,809 bytes   01:21:54.492   
    9               1
    :22:16.848     0:09:49.588     27,778 kbps     47,113 kbps     01:24:24.559    37,673 kbps     01:30:17.203    35,072 kbps     01:27:26.449    0 bytes         829,662 bytes   01:30:17.245   

    STREAM DIAGNOSTICS
    :

    File            PID             Type            Codec           Language                Seconds                 Bitrate                 Bytes           Packets         
    ----            ---             ----            -----           --------                --------------          --------------          -------------   -----           
    00010.M2TS      4113 (0x1011)   0x1B            AVC                                     5586.164                20,929                  14,613,958,931  79,503,342     
    00010.M2TS      4352 
    (0x1100)   0x80            LPCM            zho (Chinese)           5586.164                1,542                   1,077,029,000   6,703,500       
    00010.M2TS      4353 
    (0x1101)   0x80            LPCM            eng (English)           5586.164                1,542                   1,077,029,000   6,703,500       
    00010.M2TS      4354 
    (0x1102)   0x81            AC3             eng (English)           5586.164                320                     223,450,880     1,396,568       
    00010.M2TS      4608 
    (0x1200)   0x90            PGS             eng (English)           5586.164                20                      14,273,933      82,418         
    00010.M2TS      4609 
    (0x1201)   0x90            PGS             eng (English)           5586.164                2                       1,309,314       7,481           

    [/code]
    <---- 
    END FORUMS PASTE ---->

    QUICK SUMMARY:

    Disc TitleFEARLESS SHAOLIN DISC TWO
    Disc Label
    FEARLESS SHAOLIN DISC TWO
    Disc Size
    48,633,757,081 bytes
    Protection
    AACS
    Playlist
    00006.MPLS
    Size
    17,987,308,992 bytes
    Length
    1:32:06.437
    Total Bitrate
    26.04 Mbps
    Video
    MPEG-4 AVC Video 20958 kbps 1080p 23.976 fps 16:High Profile 4.1
    Audio
    Chinese LPCM Audio 1.0 48 kHz /   768 kbps 16-bit
    Audio
    English LPCM Audio 1.0 48 kHz /   768 kbps 16-bit
    Audio
    English Dolby Digital Audio 2.0 48 kHz /   320 kbps DN -31dB
    Subtitle
    English 20.663 kbps
    Subtitle
    English 1.895 kbps


    [​IMG]

    [​IMG]

    [​IMG]

    [​IMG]

    [​IMG]

    Link tải

    Nhấn nút Cảm ơn (dưới chân bài) để thấy link!
     
    Wazzock, tieuphong96, zaZay0 and 14 others like this.
  2. nicolasphuong

    nicolasphuong Well-Known Member

    Tham gia ngày:
    14/7/10
    Bài viết:
    1,723
    Đã được cảm ơn:
    7,351
    Reup với AD ơi...Thanks
     

Chia sẻ trang này