[India|Action|Comedy|Drama|Multi] India Film Non Series Collection 1080p WEB-DL H.264-Mixed

Thảo luận trong 'WEB-DL, HDTV' bắt đầu bởi hutapa, 9/2/24.

  1. hutapa

    hutapa Well-Known Member

    Tham gia ngày:
    14/1/10
    Bài viết:
    2,489
    Đã được cảm ơn:
    19,759
    Giới tính:
    Nam
    India Film Non Series Collection
    1080p WEB-DL H.264|H.265-Mixed


    Captain Miller 2024
    1080p AMZN WEB-DL DD+5.1 H.264-CPTN5DW

    (Vietsub)


    https://www.imdb.com/title/tt22170036/


    Vào những năm 1930, dưới thời Raj của Anh, Analeesan "Eesa", một cựu quân nhân của Quân đội Ấn Độ thuộc Anh tên là Đại úy Miller, đang thực hiện nhiệm vụ bảo vệ người dân khỏi người Anh sau khi chứng kiến một hành động tàn bạo.


    [​IMG] [​IMG] [​IMG] [​IMG] [​IMG] [​IMG] [​IMG] [​IMG] [​IMG] [​IMG] [​IMG]




    Mã:
    General
    Format                                   : Matroska
    Format version                           : Version 4
    File size                                : 9.37 GiB
    Duration                                 : 2 h 36 min
    Overall bit rate                         : 8 587 kb/s
    Frame rate                               : 24.000 FPS
    Writing application                      : mkvmerge v80.0 ('Roundabout') 64-bit
    Writing library                          : libebml v1.4.4 + libmatroska v1.7.1
    Video
    ID                                       : 1
    Format                                   : AVC
    Format/Info                              : Advanced Video Codec
    Format profile                           : High@L4
    Format settings                          : CABAC / 4 Ref Frames
    Format settings, CABAC                   : Yes
    Format settings, Reference frames        : 4 frames
    Codec ID                                 : V_MPEG4/ISO/AVC
    Duration                                 : 2 h 36 min
    Bit rate mode                            : Constant
    Bit rate                                 : 7 945 kb/s
    Nominal bit rate                         : 10 000 kb/s
    Width                                    : 1 920 pixels
    Height                                   : 1 040 pixels
    Display aspect ratio                     : 1.85:1
    Frame rate mode                          : Constant
    Frame rate                               : 24.000 FPS
    Color space                              : YUV
    Chroma subsampling                       : 4:2:0
    Bit depth                                : 8 bits
    Scan type                                : Progressive
    Bits/(Pixel*Frame)                       : 0.166
    Stream size                              : 8.67 GiB (93%)
    Language                                 : Tamil
    Default                                  : Yes
    Forced                                   : No
    Color range                              : Limited
    Color primaries                          : BT.709
    Transfer characteristics                 : BT.709
    Matrix coefficients                      : BT.709
    Audio
    ID                                       : 2
    Format                                   : E-AC-3
    Format/Info                              : Enhanced AC-3
    Commercial name                          : Dolby Digital Plus
    Codec ID                                 : A_EAC3
    Duration                                 : 2 h 36 min
    Bit rate mode                            : Constant
    Bit rate                                 : 640 kb/s
    Channel(s)                               : 6 channels
    Channel layout                           : L R C LFE Ls Rs
    Sampling rate                            : 48.0 kHz
    Frame rate                               : 31.250 FPS (1536 SPF)
    Compression mode                         : Lossy
    Stream size                              : 715 MiB (7%)
    Title                                    : Tamil
    Language                                 : Tamil
    Service kind                             : Complete Main
    Default                                  : Yes
    Forced                                   : No
    Text
    ID                                       : 3
    Format                                   : UTF-8
    Codec ID                                 : S_TEXT/UTF8
    Codec ID/Info                            : UTF-8 Plain Text
    Duration                                 : 2 h 31 min
    Bit rate                                 : 43 b/s
    Frame rate                               : 0.164 FPS
    Count of elements                        : 1496
    Stream size                              : 48.6 KiB (0%)
    Title                                    : English (SDH)
    Language                                 : English
    Default                                  : No
    Forced                                   : No
    Menu
    00:00:00.000                             : en:Studio Logo
    00:02:05.000                             : en:Scene 2
    00:02:26.000                             : en:Scene 3
    00:04:18.000                             : en:Scene 4
    00:10:36.000                             : en:Title Sequence
    00:10:46.000                             : en:Scene 6
    00:18:33.000                             : en:Scene 7
    00:25:45.000                             : en:Scene 8
    00:32:32.000                             : en:Scene 9
    00:40:38.000                             : en:Scene 10
    00:41:36.000                             : en:Scene 11
    00:49:54.000                             : en:Scene 12
    00:55:31.000                             : en:Scene 13
    00:58:23.000                             : en:Scene 14
    01:06:13.000                             : en:Scene 15
    01:13:02.000                             : en:Scene 16
    01:19:39.000                             : en:Scene 17
    01:23:17.000                             : en:Scene 18
    01:25:05.000                             : en:Scene 19
    01:25:15.000                             : en:Scene 20
    01:32:34.000                             : en:Scene 21
    01:39:47.000                             : en:Scene 22
    01:47:49.000                             : en:Scene 23
    01:56:40.000                             : en:Scene 24
    01:57:01.000                             : en:Scene 25
    02:01:19.000                             : en:Scene 26
    02:07:53.000                             : en:Scene 27
    02:10:00.000                             : en:Scene 28
    02:17:59.000                             : en:Scene 29
    02:23:33.000                             : en:Scene 30
    02:27:37.000                             : en:Scene 31
    02:31:24.000                             : en:End Credits
    



    #Link die, comment hoặc inbox mình reup.
    #https://www.hdvietnam.xyz/tags/hutapa/
     
    Chỉnh sửa cuối: 17/2/24
    tieubao-64, Kaali, sondmy and 20 others like this.
  2. ivy68

    ivy68 Huyền Thoại

    Tham gia ngày:
    29/3/09
    Bài viết:
    11,261
    Đã được cảm ơn:
    19,095
    Nơi ở:
    Hà Nội
    tinnguyen287 and hutapa like this.
  3. hutapa

    hutapa Well-Known Member

    Tham gia ngày:
    14/1/10
    Bài viết:
    2,489
    Đã được cảm ơn:
    19,759
    Giới tính:
    Nam
    ivy68 cảm ơn bài này.
  4. hutapa

    hutapa Well-Known Member

    Tham gia ngày:
    14/1/10
    Bài viết:
    2,489
    Đã được cảm ơn:
    19,759
    Giới tính:
    Nam
    Update:
    Captain Miller 2024
    1080p AMZN WEB-DL DD+5.1 H.264-CPTN5DW

    (Vietsub)



    #Link die, comment hoặc inbox mình reup.
    #https://www.hdvietnam.xyz/tags/hutapa/


     
    Chỉnh sửa cuối: 17/2/24
    chimendo and tinnguyen287 like this.
  5. hutapa

    hutapa Well-Known Member

    Tham gia ngày:
    14/1/10
    Bài viết:
    2,489
    Đã được cảm ơn:
    19,759
    Giới tính:
    Nam
    Update:

    Bhakshak: Tội Lỗi Làm Ngơ
    Bhakshak 2024
    1080p NF WEB-DL MULTi DD+5.1 H.264|H.265-TheBiscuitMan

    (Vietsub)

    https://www.imdb.com/title/tt27936770/


    Một câu chuyện cần phải kể.

    Một nhà báo địa phương đầy trăn trở bắt đầu cuộc điều tra không ngừng nghỉ về những vụ bạo hành kinh hoàng bị che đậy tại một mái ấm cho bé gái..


    [​IMG] [​IMG] [​IMG] [​IMG] [​IMG] [​IMG] [​IMG] [​IMG] [​IMG] [​IMG] [​IMG] [​IMG] [​IMG] [​IMG] [​IMG]


    Mã:
    
    
    General
    Format                                   : Matroska
    Format version                           : Version 4
    File size                                : 6.49 GiB
    Duration                                 : 2 h 15 min
    Overall bit rate mode                    : Variable
    Overall bit rate                         : 6 871 kb/s
    Frame rate                               : 24.000 FPS
    Encoded date                             : 2024-02-24 12:09:09 UTC
    Writing application                      : mkvmerge v66.0.0 ('Josie') 64-bit
    Writing library                          : libebml v1.4.2 + libmatroska v1.6.4
    
    Video
    ID                                       : 1
    Format                                   : AVC
    Format/Info                              : Advanced Video Codec
    Format profile                           : Main@L4
    Format settings                          : CABAC / 3 Ref Frames
    Format settings, CABAC                   : Yes
    Format settings, Reference frames        : 3 frames
    Codec ID                                 : V_MPEG4/ISO/AVC
    Duration                                 : 2 h 15 min
    Bit rate mode                            : Variable
    Bit rate                                 : 5 000 kb/s
    Maximum bit rate                         : 7 500 kb/s
    Width                                    : 1 920 pixels
    Height                                   : 1 080 pixels
    Display aspect ratio                     : 16:9
    Frame rate mode                          : Constant
    Frame rate                               : 24.000 FPS
    Color space                              : YUV
    Chroma subsampling                       : 4:2:0
    Bit depth                                : 8 bits
    Scan type                                : Progressive
    Bits/(Pixel*Frame)                       : 0.100
    Stream size                              : 4.67 GiB (72%)
    Writing library                          : x264 core 148 r2727 7d026e8
    Encoding settings                        : cabac=1 / ref=3 / deblock=1:0:0 / analyse=0x1:0x111 / me=umh / subme=10 / psy=1 / psy_rd=1.00:0.00 / mixed_ref=1 / me_range=24 / chroma_me=1 / trellis=2 / 8x8dct=0 / cqm=0 / deadzone=21,11 / fast_pskip=1 / chroma_qp_offset=-2 / threads=6 / lookahead_threads=1 / sliced_threads=0 / nr=0 / decimate=1 / interlaced=0 / bluray_compat=0 / stitchable=1 / constrained_intra=0 / bframes=2 / b_pyramid=0 / b_adapt=2 / b_bias=0 / direct=3 / weightb=1 / open_gop=0 / weightp=2 / keyint=240 / keyint_min=121 / scenecut=0 / intra_refresh=0 / rc_lookahead=48 / rc=2pass / mbtree=1 / bitrate=5000 / ratetol=1.0 / qcomp=0.50 / qpmin=6 / qpmax=51 / qpstep=4 / cplxblur=20.0 / qblur=0.5 / vbv_maxrate=7500 / vbv_bufsize=10000 / nal_hrd=vbr / filler=0 / ip_ratio=1.40 / aq=1:1.00
    Default                                  : Yes
    Forced                                   : No
    
    Audio #1
    ID                                       : 2
    Format                                   : E-AC-3
    Format/Info                              : Enhanced AC-3
    Commercial name                          : Dolby Digital Plus
    Codec ID                                 : A_EAC3
    Duration                                 : 2 h 15 min
    Bit rate mode                            : Constant
    Bit rate                                 : 640 kb/s
    Channel(s)                               : 6 channels
    Channel layout                           : L R C LFE Ls Rs
    Sampling rate                            : 48.0 kHz
    Frame rate                               : 31.250 FPS (1536 SPF)
    Compression mode                         : Lossy
    Stream size                              : 619 MiB (9%)
    Language                                 : Hindi
    Service kind                             : Complete Main
    Default                                  : Yes
    Forced                                   : No
    
    Audio #2
    ID                                       : 3
    Format                                   : E-AC-3
    Format/Info                              : Enhanced AC-3
    Commercial name                          : Dolby Digital Plus
    Codec ID                                 : A_EAC3
    Duration                                 : 2 h 15 min
    Bit rate mode                            : Constant
    Bit rate                                 : 640 kb/s
    Channel(s)                               : 6 channels
    Channel layout                           : L R C LFE Ls Rs
    Sampling rate                            : 48.0 kHz
    Frame rate                               : 31.250 FPS (1536 SPF)
    Compression mode                         : Lossy
    Stream size                              : 619 MiB (9%)
    Language                                 : English
    Service kind                             : Complete Main
    Default                                  : No
    Forced                                   : No
    
    Audio #3
    ID                                       : 4
    Format                                   : E-AC-3
    Format/Info                              : Enhanced AC-3
    Commercial name                          : Dolby Digital Plus
    Codec ID                                 : A_EAC3
    Duration                                 : 2 h 15 min
    Bit rate mode                            : Constant
    Bit rate                                 : 640 kb/s
    Channel(s)                               : 6 channels
    Channel layout                           : L R C LFE Ls Rs
    Sampling rate                            : 48.0 kHz
    Frame rate                               : 31.250 FPS (1536 SPF)
    Compression mode                         : Lossy
    Stream size                              : 619 MiB (9%)
    Language                                 : Tamil
    Service kind                             : Complete Main
    Default                                  : No
    Forced                                   : No
    
    Text #1
    ID                                       : 5
    Format                                   : UTF-8
    Codec ID                                 : S_TEXT/UTF8
    Codec ID/Info                            : UTF-8 Plain Text
    Duration                                 : 2 h 13 min
    Bit rate                                 : 61 b/s
    Frame rate                               : 0.239 FPS
    Count of elements                        : 1924
    Stream size                              : 60.1 KiB (0%)
    Language                                 : Dutch
    Default                                  : No
    Forced                                   : No
    
    Text #2
    ID                                       : 6
    Format                                   : UTF-8
    Codec ID                                 : S_TEXT/UTF8
    Codec ID/Info                            : UTF-8 Plain Text
    Duration                                 : 2 h 8 min
    Bit rate                                 : 79 b/s
    Frame rate                               : 0.242 FPS
    Count of elements                        : 1861
    Stream size                              : 74.6 KiB (0%)
    Language                                 : English (IN)
    Default                                  : No
    Forced                                   : No
    
    Text #3
    ID                                       : 7
    Format                                   : UTF-8
    Codec ID                                 : S_TEXT/UTF8
    Codec ID/Info                            : UTF-8 Plain Text
    Duration                                 : 2 h 9 min
    Bit rate                                 : 85 b/s
    Frame rate                               : 0.263 FPS
    Count of elements                        : 2041
    Stream size                              : 80.6 KiB (0%)
    Title                                    : [SDH]
    Language                                 : English (IN)
    Default                                  : Yes
    Forced                                   : No
    
    Text #4
    ID                                       : 8
    Format                                   : UTF-8
    Codec ID                                 : S_TEXT/UTF8
    Codec ID/Info                            : UTF-8 Plain Text
    Duration                                 : 2 h 9 min
    Bit rate                                 : 0 b/s
    Frame rate                               : 0.003 FPS
    Count of elements                        : 23
    Stream size                              : 569 Bytes (0%)
    Title                                    : [Forced]
    Language                                 : English (IN)
    Default                                  : No
    Forced                                   : Yes
    
    Text #5
    ID                                       : 9
    Format                                   : UTF-8
    Codec ID                                 : S_TEXT/UTF8
    Codec ID/Info                            : UTF-8 Plain Text
    Duration                                 : 2 h 13 min
    Bit rate                                 : 63 b/s
    Frame rate                               : 0.239 FPS
    Count of elements                        : 1918
    Stream size                              : 62.7 KiB (0%)
    Language                                 : French
    Default                                  : No
    Forced                                   : No
    
    Text #6
    ID                                       : 10
    Format                                   : UTF-8
    Codec ID                                 : S_TEXT/UTF8
    Codec ID/Info                            : UTF-8 Plain Text
    Duration                                 : 2 h 13 min
    Bit rate                                 : 62 b/s
    Frame rate                               : 0.238 FPS
    Count of elements                        : 1915
    Stream size                              : 61.6 KiB (0%)
    Language                                 : German
    Default                                  : No
    Forced                                   : No
    
    Text #7
    ID                                       : 11
    Format                                   : UTF-8
    Codec ID                                 : S_TEXT/UTF8
    Codec ID/Info                            : UTF-8 Plain Text
    Duration                                 : 2 h 13 min
    Bit rate                                 : 155 b/s
    Frame rate                               : 0.239 FPS
    Count of elements                        : 1925
    Stream size                              : 153 KiB (0%)
    Language                                 : Hindi
    Default                                  : No
    Forced                                   : No
    
    Text #8
    ID                                       : 12
    Format                                   : UTF-8
    Codec ID                                 : S_TEXT/UTF8
    Codec ID/Info                            : UTF-8 Plain Text
    Duration                                 : 2 h 13 min
    Bit rate                                 : 178 b/s
    Frame rate                               : 0.272 FPS
    Count of elements                        : 2185
    Stream size                              : 175 KiB (0%)
    Title                                    : [SDH]
    Language                                 : Hindi
    Default                                  : No
    Forced                                   : No
    
    Text #9
    ID                                       : 13
    Format                                   : UTF-8
    Codec ID                                 : S_TEXT/UTF8
    Codec ID/Info                            : UTF-8 Plain Text
    Duration                                 : 1 h 31 min
    Bit rate                                 : 0 b/s
    Frame rate                               : 0.001 FPS
    Count of elements                        : 3
    Stream size                              : 68.0 Bytes (0%)
    Title                                    : [Forced]
    Language                                 : Hindi
    Default                                  : No
    Forced                                   : Yes
    
    Text #10
    ID                                       : 14
    Format                                   : UTF-8
    Codec ID                                 : S_TEXT/UTF8
    Codec ID/Info                            : UTF-8 Plain Text
    Duration                                 : 2 h 13 min
    Bit rate                                 : 63 b/s
    Frame rate                               : 0.239 FPS
    Count of elements                        : 1918
    Stream size                              : 62.6 KiB (0%)
    Language                                 : Indonesian
    Default                                  : No
    Forced                                   : No
    
    Text #11
    ID                                       : 15
    Format                                   : UTF-8
    Codec ID                                 : S_TEXT/UTF8
    Codec ID/Info                            : UTF-8 Plain Text
    Duration                                 : 2 h 13 min
    Bit rate                                 : 61 b/s
    Frame rate                               : 0.238 FPS
    Count of elements                        : 1916
    Stream size                              : 60.1 KiB (0%)
    Language                                 : Spanish
    Default                                  : No
    Forced                                   : No
    
    Text #12
    ID                                       : 16
    Format                                   : UTF-8
    Codec ID                                 : S_TEXT/UTF8
    Codec ID/Info                            : UTF-8 Plain Text
    Duration                                 : 2 h 4 min
    Bit rate                                 : 10 b/s
    Frame rate                               : 0.016 FPS
    Count of elements                        : 118
    Stream size                              : 9.28 KiB (0%)
    Title                                    : [Forced]
    Language                                 : Tamil
    Default                                  : No
    Forced                                   : Yes
    
    Text #13
    ID                                       : 17
    Format                                   : UTF-8
    Codec ID                                 : S_TEXT/UTF8
    Codec ID/Info                            : UTF-8 Plain Text
    Duration                                 : 2 h 13 min
    Bit rate                                 : 62 b/s
    Frame rate                               : 0.238 FPS
    Count of elements                        : 1916
    Stream size                              : 61.5 KiB (0%)
    Language                                 : Turkish
    Default                                  : No
    Forced                                   : No
    
    Text #14
    ID                                       : 18
    Format                                   : UTF-8
    Codec ID                                 : S_TEXT/UTF8
    Codec ID/Info                            : UTF-8 Plain Text
    Duration                                 : 2 h 13 min
    Bit rate                                 : 79 b/s
    Frame rate                               : 0.238 FPS
    Count of elements                        : 1917
    Stream size                              : 77.6 KiB (0%)
    Language                                 : Vietnamese
    Default                                  : Yes
    Forced                                   : Yes
    
    Menu
    00:00:00.000                             : en:Part 01
    02:10:12.000                             : en:Credits
    ----------------------------------------------------------------------------------------
    General
    Format                                   : Matroska
    Format version                           : Version 4
    File size                                : 5.15 GiB
    Duration                                 : 2 h 15 min
    Overall bit rate                         : 5 456 kb/s
    Frame rate                               : 24.000 FPS
    Encoded date                             : 2024-02-24 12:23:20 UTC
    Writing application                      : mkvmerge v66.0.0 ('Josie') 64-bit
    Writing library                          : libebml v1.4.2 + libmatroska v1.6.4
    
    Video
    ID                                       : 1
    Format                                   : HEVC
    Format/Info                              : High Efficiency Video Coding
    Format profile                           : Main 10@L4@Main
    Codec ID                                 : V_MPEGH/ISO/HEVC
    Duration                                 : 2 h 15 min
    Bit rate                                 : 4 875 kb/s
    Width                                    : 1 920 pixels
    Height                                   : 1 080 pixels
    Display aspect ratio                     : 16:9
    Frame rate mode                          : Constant
    Frame rate                               : 24.000 FPS
    Color space                              : YUV
    Chroma subsampling                       : 4:2:0
    Bit depth                                : 10 bits
    Bits/(Pixel*Frame)                       : 0.098
    Stream size                              : 4.60 GiB (89%)
    Default                                  : Yes
    Forced                                   : No
    Color range                              : Limited
    Color primaries                          : BT.709
    Transfer characteristics                 : BT.709
    Matrix coefficients                      : BT.709
    
    Audio #1
    ID                                       : 2
    Format                                   : AAC LC SBR
    Format/Info                              : Advanced Audio Codec Low Complexity with Spectral Band Replication
    Commercial name                          : HE-AAC
    Format settings                          : Explicit
    Codec ID                                 : A_AAC-2
    Duration                                 : 2 h 15 min
    Bit rate                                 : 192 kb/s
    Channel(s)                               : 6 channels
    Channel layout                           : C L R Ls Rs LFE
    Sampling rate                            : 48.0 kHz
    Frame rate                               : 23.438 FPS (2048 SPF)
    Compression mode                         : Lossy
    Stream size                              : 186 MiB (4%)
    Language                                 : Hindi
    Default                                  : Yes
    Forced                                   : No
    
    Audio #2
    ID                                       : 3
    Format                                   : AAC LC SBR
    Format/Info                              : Advanced Audio Codec Low Complexity with Spectral Band Replication
    Commercial name                          : HE-AAC
    Format settings                          : Explicit
    Codec ID                                 : A_AAC-2
    Duration                                 : 2 h 15 min
    Bit rate                                 : 192 kb/s
    Channel(s)                               : 6 channels
    Channel layout                           : C L R Ls Rs LFE
    Sampling rate                            : 48.0 kHz
    Frame rate                               : 23.438 FPS (2048 SPF)
    Compression mode                         : Lossy
    Stream size                              : 186 MiB (4%)
    Language                                 : English
    Default                                  : No
    Forced                                   : No
    
    Audio #3
    ID                                       : 4
    Format                                   : AAC LC SBR
    Format/Info                              : Advanced Audio Codec Low Complexity with Spectral Band Replication
    Commercial name                          : HE-AAC
    Format settings                          : Explicit
    Codec ID                                 : A_AAC-2
    Duration                                 : 2 h 15 min
    Bit rate                                 : 192 kb/s
    Channel(s)                               : 6 channels
    Channel layout                           : C L R Ls Rs LFE
    Sampling rate                            : 48.0 kHz
    Frame rate                               : 23.438 FPS (2048 SPF)
    Compression mode                         : Lossy
    Stream size                              : 186 MiB (4%)
    Language                                 : Tamil
    Default                                  : No
    Forced                                   : No
    
    Text #1
    ID                                       : 5
    Format                                   : UTF-8
    Codec ID                                 : S_TEXT/UTF8
    Codec ID/Info                            : UTF-8 Plain Text
    Duration                                 : 2 h 13 min
    Bit rate                                 : 61 b/s
    Frame rate                               : 0.239 FPS
    Count of elements                        : 1924
    Stream size                              : 60.1 KiB (0%)
    Language                                 : Dutch
    Default                                  : No
    Forced                                   : No
    
    Text #2
    ID                                       : 6
    Format                                   : UTF-8
    Codec ID                                 : S_TEXT/UTF8
    Codec ID/Info                            : UTF-8 Plain Text
    Duration                                 : 2 h 8 min
    Bit rate                                 : 79 b/s
    Frame rate                               : 0.242 FPS
    Count of elements                        : 1861
    Stream size                              : 74.6 KiB (0%)
    Language                                 : English (IN)
    Default                                  : No
    Forced                                   : No
    
    Text #3
    ID                                       : 7
    Format                                   : UTF-8
    Codec ID                                 : S_TEXT/UTF8
    Codec ID/Info                            : UTF-8 Plain Text
    Duration                                 : 2 h 9 min
    Bit rate                                 : 85 b/s
    Frame rate                               : 0.263 FPS
    Count of elements                        : 2041
    Stream size                              : 80.6 KiB (0%)
    Title                                    : [SDH]
    Language                                 : English (IN)
    Default                                  : Yes
    Forced                                   : No
    
    Text #4
    ID                                       : 8
    Format                                   : UTF-8
    Codec ID                                 : S_TEXT/UTF8
    Codec ID/Info                            : UTF-8 Plain Text
    Duration                                 : 2 h 9 min
    Bit rate                                 : 0 b/s
    Frame rate                               : 0.003 FPS
    Count of elements                        : 23
    Stream size                              : 569 Bytes (0%)
    Title                                    : [Forced]
    Language                                 : English (IN)
    Default                                  : No
    Forced                                   : Yes
    
    Text #5
    ID                                       : 9
    Format                                   : UTF-8
    Codec ID                                 : S_TEXT/UTF8
    Codec ID/Info                            : UTF-8 Plain Text
    Duration                                 : 2 h 13 min
    Bit rate                                 : 63 b/s
    Frame rate                               : 0.239 FPS
    Count of elements                        : 1918
    Stream size                              : 62.7 KiB (0%)
    Language                                 : French
    Default                                  : No
    Forced                                   : No
    
    Text #6
    ID                                       : 10
    Format                                   : UTF-8
    Codec ID                                 : S_TEXT/UTF8
    Codec ID/Info                            : UTF-8 Plain Text
    Duration                                 : 2 h 13 min
    Bit rate                                 : 62 b/s
    Frame rate                               : 0.238 FPS
    Count of elements                        : 1915
    Stream size                              : 61.6 KiB (0%)
    Language                                 : German
    Default                                  : No
    Forced                                   : No
    
    Text #7
    ID                                       : 11
    Format                                   : UTF-8
    Codec ID                                 : S_TEXT/UTF8
    Codec ID/Info                            : UTF-8 Plain Text
    Duration                                 : 2 h 13 min
    Bit rate                                 : 155 b/s
    Frame rate                               : 0.239 FPS
    Count of elements                        : 1925
    Stream size                              : 153 KiB (0%)
    Language                                 : Hindi
    Default                                  : No
    Forced                                   : No
    
    Text #8
    ID                                       : 12
    Format                                   : UTF-8
    Codec ID                                 : S_TEXT/UTF8
    Codec ID/Info                            : UTF-8 Plain Text
    Duration                                 : 2 h 13 min
    Bit rate                                 : 178 b/s
    Frame rate                               : 0.272 FPS
    Count of elements                        : 2185
    Stream size                              : 175 KiB (0%)
    Title                                    : [SDH]
    Language                                 : Hindi
    Default                                  : No
    Forced                                   : No
    
    Text #9
    ID                                       : 13
    Format                                   : UTF-8
    Codec ID                                 : S_TEXT/UTF8
    Codec ID/Info                            : UTF-8 Plain Text
    Duration                                 : 1 h 31 min
    Bit rate                                 : 0 b/s
    Frame rate                               : 0.001 FPS
    Count of elements                        : 3
    Stream size                              : 68.0 Bytes (0%)
    Title                                    : [Forced]
    Language                                 : Hindi
    Default                                  : No
    Forced                                   : Yes
    
    Text #10
    ID                                       : 14
    Format                                   : UTF-8
    Codec ID                                 : S_TEXT/UTF8
    Codec ID/Info                            : UTF-8 Plain Text
    Duration                                 : 2 h 13 min
    Bit rate                                 : 63 b/s
    Frame rate                               : 0.239 FPS
    Count of elements                        : 1918
    Stream size                              : 62.6 KiB (0%)
    Language                                 : Indonesian
    Default                                  : No
    Forced                                   : No
    
    Text #11
    ID                                       : 15
    Format                                   : UTF-8
    Codec ID                                 : S_TEXT/UTF8
    Codec ID/Info                            : UTF-8 Plain Text
    Duration                                 : 2 h 13 min
    Bit rate                                 : 61 b/s
    Frame rate                               : 0.238 FPS
    Count of elements                        : 1916
    Stream size                              : 60.1 KiB (0%)
    Language                                 : Spanish
    Default                                  : No
    Forced                                   : No
    
    Text #12
    ID                                       : 16
    Format                                   : UTF-8
    Codec ID                                 : S_TEXT/UTF8
    Codec ID/Info                            : UTF-8 Plain Text
    Duration                                 : 2 h 4 min
    Bit rate                                 : 10 b/s
    Frame rate                               : 0.016 FPS
    Count of elements                        : 118
    Stream size                              : 9.28 KiB (0%)
    Title                                    : [Forced]
    Language                                 : Tamil
    Default                                  : No
    Forced                                   : Yes
    
    Text #13
    ID                                       : 17
    Format                                   : UTF-8
    Codec ID                                 : S_TEXT/UTF8
    Codec ID/Info                            : UTF-8 Plain Text
    Duration                                 : 2 h 13 min
    Bit rate                                 : 62 b/s
    Frame rate                               : 0.238 FPS
    Count of elements                        : 1916
    Stream size                              : 61.5 KiB (0%)
    Language                                 : Turkish
    Default                                  : No
    Forced                                   : No
    
    Text #14
    ID                                       : 18
    Format                                   : UTF-8
    Codec ID                                 : S_TEXT/UTF8
    Codec ID/Info                            : UTF-8 Plain Text
    Duration                                 : 2 h 13 min
    Bit rate                                 : 79 b/s
    Frame rate                               : 0.238 FPS
    Count of elements                        : 1917
    Stream size                              : 77.6 KiB (0%)
    Language                                 : Vietnamese
    Default                                  : Yes
    Forced                                   : Yes
    
    Menu
    00:00:00.000                             : en:Part 01
    02:10:12.000                             : en:Credits
    
    



    #Link die, comment hoặc inbox mình reup.
    #https://www.hdvietnam.xyz/tags/hutapa/
     
    phuongga678910 cảm ơn bài này.

Chia sẻ trang này