[Hongkong|Crime|Action] The Goldfinger 2023 1080p|2160p WEB-DL H265 DDP5.1 2Audio-DreamHD

Thảo luận trong 'WEB-DL, HDTV' bắt đầu bởi hutapa, 22/2/24.

  1. hutapa

    hutapa Well-Known Member

    Tham gia ngày:
    14/1/10
    Bài viết:
    2,489
    Đã được cảm ơn:
    19,867
    Giới tính:
    Nam
    Ngón Tay Vàng
    The Goldfinger 2023
    1080p WEB-DL H265 DDP5.1 2Audio-DreamHD
    2160p HQ WEB-DL H265 DDP5.1 2Audio-DreamHD
    2160p WEB-DL H265 HDR DDP5.1 2Audio-DreamHD

    (Hardsub)


    https://www.imdb.com/title/tt14099796/

    https://subscene.com/subtitles/the-goldfinger-jin-shouzhi



    Tại Hồng Kông, những năm 1970, Ủy ban Độc lập Chống Tham nhũng (ICAC) được thành lập để lật đổ tổ chức tham nhũng do các quan chức chính phủ Anh đứng đầu.

    Một điều tra viên cấp cao cương trực, tài ba của lực lượng tin rằng sự ổn định và thịnh vượng đã nằm trong tầm tay. Nhưng một kỷ nguyên mới của lòng tham và giàu sang đã đưa anh ta đến một chiến trường tham nhũng mới.


    [​IMG] [​IMG] [​IMG] [​IMG] [​IMG] [​IMG] [​IMG] [​IMG] [​IMG] [​IMG] [​IMG] [​IMG] [​IMG] [​IMG] [​IMG]


    Mã:
    General
    Format                                   : Matroska
    Format version                           : Version 4
    File size                                : 3.00 GiB
    Duration                                 : 2 h 6 min
    Overall bit rate                         : 3 413 kb/s
    Frame rate                               : 24.000 FPS
    Encoded date                             : 2024-02-18 02:16:01 UTC
    Writing application                      : mkvmerge v79.0 ('Funeral Pyres') 64-bit
    Writing library                          : libebml v1.4.4 + libmatroska v1.7.1
    Video
    ID                                       : 1
    Format                                   : HEVC
    Format/Info                              : High Efficiency Video Coding
    Format profile                           : Main@L4@Main
    Codec ID                                 : V_MPEGH/ISO/HEVC
    Duration                                 : 2 h 5 min
    Bit rate                                 : 1 624 kb/s
    Width                                    : 1 920 pixels
    Height                                   : 800 pixels
    Display aspect ratio                     : 2.40:1
    Frame rate mode                          : Constant
    Frame rate                               : 24.000 FPS
    Color space                              : YUV
    Chroma subsampling                       : 4:2:0
    Bit depth                                : 8 bits
    Bits/(Pixel*Frame)                       : 0.044
    Stream size                              : 1.43 GiB (48%)
    Default                                  : Yes
    Forced                                   : No
    Color range                              : Limited
    Audio #1
    ID                                       : 2
    Format                                   : E-AC-3
    Format/Info                              : Enhanced AC-3
    Commercial name                          : Dolby Digital Plus
    Codec ID                                 : A_EAC3
    Duration                                 : 2 h 5 min
    Bit rate mode                            : Constant
    Bit rate                                 : 448 kb/s
    Channel(s)                               : 6 channels
    Channel layout                           : L R C LFE Ls Rs
    Sampling rate                            : 48.0 kHz
    Frame rate                               : 31.250 FPS (1536 SPF)
    Compression mode                         : Lossy
    Delay relative to video                  : 13 s 84 ms
    Stream size                              : 403 MiB (13%)
    Title                                    : Cantonese [DDP5.1]
    Language                                 : Cantonese
    Service kind                             : Complete Main
    Default                                  : Yes
    Forced                                   : No
    Audio #2
    ID                                       : 3
    Format                                   : E-AC-3
    Format/Info                              : Enhanced AC-3
    Commercial name                          : Dolby Digital Plus
    Codec ID                                 : A_EAC3
    Duration                                 : 2 h 5 min
    Bit rate mode                            : Constant
    Bit rate                                 : 448 kb/s
    Channel(s)                               : 6 channels
    Channel layout                           : L R C LFE Ls Rs
    Sampling rate                            : 48.0 kHz
    Frame rate                               : 31.250 FPS (1536 SPF)
    Compression mode                         : Lossy
    Delay relative to video                  : 13 s 84 ms
    Stream size                              : 403 MiB (13%)
    Title                                    : Mandarin [DDP5.1]
    Language                                 : Chinese
    Service kind                             : Complete Main
    Default                                  : No
    Forced                                   : No
    Audio #3
    ID                                       : 4
    Format                                   : E-AC-3
    Format/Info                              : Enhanced AC-3
    Commercial name                          : Dolby Digital Plus
    Codec ID                                 : A_EAC3
    Duration                                 : 2 h 5 min
    Bit rate mode                            : Constant
    Bit rate                                 : 256 kb/s
    Channel(s)                               : 2 channels
    Channel layout                           : L R
    Sampling rate                            : 48.0 kHz
    Frame rate                               : 31.250 FPS (1536 SPF)
    Bit depth                                : 32 bits
    Compression mode                         : Lossy
    Delay relative to video                  : 8 s 83 ms
    Stream size                              : 230 MiB (7%)
    Title                                    : Cantonese [DDP2.0]
    Language                                 : Cantonese
    Service kind                             : Complete Main
    Default                                  : No
    Forced                                   : No
    Audio #4
    ID                                       : 5
    Format                                   : E-AC-3
    Format/Info                              : Enhanced AC-3
    Commercial name                          : Dolby Digital Plus
    Codec ID                                 : A_EAC3
    Duration                                 : 2 h 5 min
    Bit rate mode                            : Constant
    Bit rate                                 : 256 kb/s
    Channel(s)                               : 2 channels
    Channel layout                           : L R
    Sampling rate                            : 48.0 kHz
    Frame rate                               : 31.250 FPS (1536 SPF)
    Bit depth                                : 32 bits
    Compression mode                         : Lossy
    Delay relative to video                  : 8 s 83 ms
    Stream size                              : 230 MiB (7%)
    Title                                    : Mandarin [DDP2.0]
    Language                                 : Chinese
    Service kind                             : Complete Main
    Default                                  : No
    Forced                                   : No
    Audio #5
    ID                                       : 6
    Format                                   : AAC LC
    Format/Info                              : Advanced Audio Codec Low Complexity
    Codec ID                                 : A_AAC-2
    Duration                                 : 2 h 5 min
    Bit rate                                 : 192 kb/s
    Channel(s)                               : 2 channels
    Channel layout                           : L R
    Sampling rate                            : 44.1 kHz
    Frame rate                               : 43.066 FPS (1024 SPF)
    Compression mode                         : Lossy
    Stream size                              : 171 MiB (6%)
    Title                                    : Cantonese [AAC2.0]
    Language                                 : Cantonese
    Default                                  : No
    Forced                                   : No
    Audio #6
    ID                                       : 7
    Format                                   : AAC LC
    Format/Info                              : Advanced Audio Codec Low Complexity
    Codec ID                                 : A_AAC-2
    Duration                                 : 2 h 5 min
    Bit rate                                 : 192 kb/s
    Channel(s)                               : 2 channels
    Channel layout                           : L R
    Sampling rate                            : 44.1 kHz
    Frame rate                               : 43.066 FPS (1024 SPF)
    Compression mode                         : Lossy
    Stream size                              : 171 MiB (6%)
    Title                                    : Mandarin [AAC2.0]
    Language                                 : Chinese
    Default                                  : No
    Forced                                   : No
    ----------------------------------------------------------------------------
    General
    Format                                   : Matroska
    Format version                           : Version 4
    File size                                : 19.1 GiB
    Duration                                 : 2 h 5 min
    Overall bit rate                         : 21.8 Mb/s
    Frame rate                               : 24.000 FPS
    Encoded date                             : 2024-02-18 02:51:34 UTC
    Writing application                      : mkvmerge v79.0 ('Funeral Pyres') 64-bit
    Writing library                          : libebml v1.4.4 + libmatroska v1.7.1
    Video
    ID                                       : 1
    Format                                   : HEVC
    Format/Info                              : High Efficiency Video Coding
    Format profile                           : Main [email protected]@Main
    Codec ID                                 : V_MPEGH/ISO/HEVC
    Duration                                 : 2 h 5 min
    Bit rate                                 : 19.9 Mb/s
    Width                                    : 3 840 pixels
    Height                                   : 1 608 pixels
    Display aspect ratio                     : 2.39:1
    Frame rate mode                          : Constant
    Frame rate                               : 24.000 FPS
    Color space                              : YUV
    Chroma subsampling                       : 4:2:0
    Bit depth                                : 10 bits
    Bits/(Pixel*Frame)                       : 0.134
    Stream size                              : 17.4 GiB (91%)
    Default                                  : Yes
    Forced                                   : No
    Color range                              : Limited
    Color primaries                          : BT.709
    Transfer characteristics                 : BT.709
    Matrix coefficients                      : BT.709
    Audio #1
    ID                                       : 2
    Format                                   : E-AC-3
    Format/Info                              : Enhanced AC-3
    Commercial name                          : Dolby Digital Plus
    Codec ID                                 : A_EAC3
    Duration                                 : 2 h 5 min
    Bit rate mode                            : Constant
    Bit rate                                 : 448 kb/s
    Channel(s)                               : 6 channels
    Channel layout                           : L R C LFE Ls Rs
    Sampling rate                            : 48.0 kHz
    Frame rate                               : 31.250 FPS (1536 SPF)
    Compression mode                         : Lossy
    Stream size                              : 403 MiB (2%)
    Title                                    : Cantonese [DDP5.1]
    Language                                 : Cantonese
    Service kind                             : Complete Main
    Default                                  : Yes
    Forced                                   : No
    Audio #2
    ID                                       : 3
    Format                                   : E-AC-3
    Format/Info                              : Enhanced AC-3
    Commercial name                          : Dolby Digital Plus
    Codec ID                                 : A_EAC3
    Duration                                 : 2 h 5 min
    Bit rate mode                            : Constant
    Bit rate                                 : 448 kb/s
    Channel(s)                               : 6 channels
    Channel layout                           : L R C LFE Ls Rs
    Sampling rate                            : 48.0 kHz
    Frame rate                               : 31.250 FPS (1536 SPF)
    Compression mode                         : Lossy
    Stream size                              : 403 MiB (2%)
    Title                                    : Mandarin [DDP5.1]
    Language                                 : Chinese
    Service kind                             : Complete Main
    Default                                  : No
    Forced                                   : No
    Audio #3
    ID                                       : 4
    Format                                   : E-AC-3
    Format/Info                              : Enhanced AC-3
    Commercial name                          : Dolby Digital Plus
    Codec ID                                 : A_EAC3
    Duration                                 : 2 h 5 min
    Bit rate mode                            : Constant
    Bit rate                                 : 256 kb/s
    Channel(s)                               : 2 channels
    Channel layout                           : L R
    Sampling rate                            : 48.0 kHz
    Frame rate                               : 31.250 FPS (1536 SPF)
    Bit depth                                : 32 bits
    Compression mode                         : Lossy
    Delay relative to video                  : 23 ms
    Stream size                              : 230 MiB (1%)
    Title                                    : Cantonese [DDP2.0]
    Language                                 : Cantonese
    Service kind                             : Complete Main
    Default                                  : No
    Forced                                   : No
    Audio #4
    ID                                       : 5
    Format                                   : E-AC-3
    Format/Info                              : Enhanced AC-3
    Commercial name                          : Dolby Digital Plus
    Codec ID                                 : A_EAC3
    Duration                                 : 2 h 5 min
    Bit rate mode                            : Constant
    Bit rate                                 : 256 kb/s
    Channel(s)                               : 2 channels
    Channel layout                           : L R
    Sampling rate                            : 48.0 kHz
    Frame rate                               : 31.250 FPS (1536 SPF)
    Bit depth                                : 32 bits
    Compression mode                         : Lossy
    Delay relative to video                  : 23 ms
    Stream size                              : 230 MiB (1%)
    Title                                    : Mandarin [DDP2.0]
    Language                                 : Chinese
    Service kind                             : Complete Main
    Default                                  : No
    Forced                                   : No
    Audio #5
    ID                                       : 6
    Format                                   : AAC LC
    Format/Info                              : Advanced Audio Codec Low Complexity
    Codec ID                                 : A_AAC-2
    Duration                                 : 2 h 5 min
    Bit rate                                 : 256 kb/s
    Channel(s)                               : 2 channels
    Channel layout                           : L R
    Sampling rate                            : 44.1 kHz
    Frame rate                               : 43.066 FPS (1024 SPF)
    Compression mode                         : Lossy
    Stream size                              : 230 MiB (1%)
    Title                                    : Cantonese [AAC2.0]
    Language                                 : Cantonese
    Default                                  : No
    Forced                                   : No
    Audio #6
    ID                                       : 7
    Format                                   : AAC LC
    Format/Info                              : Advanced Audio Codec Low Complexity
    Codec ID                                 : A_AAC-2
    Duration                                 : 2 h 5 min
    Bit rate                                 : 256 kb/s
    Channel(s)                               : 2 channels
    Channel layout                           : L R
    Sampling rate                            : 44.1 kHz
    Frame rate                               : 43.066 FPS (1024 SPF)
    Compression mode                         : Lossy
    Stream size                              : 230 MiB (1%)
    Title                                    : Mandarin [AAC2.0]
    Language                                 : Chinese
    Default                                  : No
    Forced                                   : No
    ------------------------------------------------------
    General
    Format                                   : Matroska
    Format version                           : Version 4
    File size                                : 10.4 GiB
    Duration                                 : 2 h 6 min
    Overall bit rate                         : 11.8 Mb/s
    Frame rate                               : 24.000 FPS
    Encoded date                             : 2024-02-18 02:24:22 UTC
    Writing application                      : mkvmerge v79.0 ('Funeral Pyres') 64-bit
    Writing library                          : libebml v1.4.4 + libmatroska v1.7.1
    Video
    ID                                       : 1
    Format                                   : HEVC
    Format/Info                              : High Efficiency Video Coding
    Format profile                           : Main 10@L5@Main
    HDR format                               : HDR Vivid, Version 1
    Codec ID                                 : V_MPEGH/ISO/HEVC
    Duration                                 : 2 h 5 min
    Bit rate                                 : 10.0 Mb/s
    Width                                    : 3 840 pixels
    Height                                   : 1 608 pixels
    Display aspect ratio                     : 2.39:1
    Frame rate mode                          : Constant
    Frame rate                               : 24.000 FPS
    Color space                              : YUV
    Chroma subsampling                       : 4:2:0
    Bit depth                                : 10 bits
    Bits/(Pixel*Frame)                       : 0.068
    Stream size                              : 8.81 GiB (85%)
    Default                                  : Yes
    Forced                                   : No
    Color range                              : Limited
    Color primaries                          : BT.2020
    Transfer characteristics                 : PQ
    Matrix coefficients                      : BT.2020 non-constant
    Mastering display color primaries        : R: x=0.708000 y=0.292000, G: x=0.170000 y=0.797000, B: x=0.130000 y=0.046000, White point: x=0.312700 y=0.329000
    Mastering display luminance              : min: 0.0001 cd/m2, max: 1000 cd/m2
    Maximum Content Light Level              : 681 cd/m2
    Maximum Frame-Average Light Level        : 99 cd/m2
    Audio #1
    ID                                       : 2
    Format                                   : E-AC-3
    Format/Info                              : Enhanced AC-3
    Commercial name                          : Dolby Digital Plus
    Codec ID                                 : A_EAC3
    Duration                                 : 2 h 5 min
    Bit rate mode                            : Constant
    Bit rate                                 : 448 kb/s
    Channel(s)                               : 6 channels
    Channel layout                           : L R C LFE Ls Rs
    Sampling rate                            : 48.0 kHz
    Frame rate                               : 31.250 FPS (1536 SPF)
    Compression mode                         : Lossy
    Delay relative to video                  : 13 s 84 ms
    Stream size                              : 403 MiB (4%)
    Title                                    : Cantonese [DDP5.1]
    Language                                 : Cantonese
    Service kind                             : Complete Main
    Default                                  : Yes
    Forced                                   : No
    Audio #2
    ID                                       : 3
    Format                                   : E-AC-3
    Format/Info                              : Enhanced AC-3
    Commercial name                          : Dolby Digital Plus
    Codec ID                                 : A_EAC3
    Duration                                 : 2 h 5 min
    Bit rate mode                            : Constant
    Bit rate                                 : 448 kb/s
    Channel(s)                               : 6 channels
    Channel layout                           : L R C LFE Ls Rs
    Sampling rate                            : 48.0 kHz
    Frame rate                               : 31.250 FPS (1536 SPF)
    Compression mode                         : Lossy
    Delay relative to video                  : 13 s 84 ms
    Stream size                              : 403 MiB (4%)
    Title                                    : Mandarin [DDP5.1]
    Language                                 : Chinese
    Service kind                             : Complete Main
    Default                                  : No
    Forced                                   : No
    Audio #3
    ID                                       : 4
    Format                                   : E-AC-3
    Format/Info                              : Enhanced AC-3
    Commercial name                          : Dolby Digital Plus
    Codec ID                                 : A_EAC3
    Duration                                 : 2 h 5 min
    Bit rate mode                            : Constant
    Bit rate                                 : 256 kb/s
    Channel(s)                               : 2 channels
    Channel layout                           : L R
    Sampling rate                            : 48.0 kHz
    Frame rate                               : 31.250 FPS (1536 SPF)
    Bit depth                                : 32 bits
    Compression mode                         : Lossy
    Delay relative to video                  : 8 s 83 ms
    Stream size                              : 230 MiB (2%)
    Title                                    : Cantonese [DDP2.0]
    Language                                 : Cantonese
    Service kind                             : Complete Main
    Default                                  : No
    Forced                                   : No
    Audio #4
    ID                                       : 5
    Format                                   : E-AC-3
    Format/Info                              : Enhanced AC-3
    Commercial name                          : Dolby Digital Plus
    Codec ID                                 : A_EAC3
    Duration                                 : 2 h 5 min
    Bit rate mode                            : Constant
    Bit rate                                 : 256 kb/s
    Channel(s)                               : 2 channels
    Channel layout                           : L R
    Sampling rate                            : 48.0 kHz
    Frame rate                               : 31.250 FPS (1536 SPF)
    Bit depth                                : 32 bits
    Compression mode                         : Lossy
    Delay relative to video                  : 8 s 83 ms
    Stream size                              : 230 MiB (2%)
    Title                                    : Mandarin [DDP2.0]
    Language                                 : Chinese
    Service kind                             : Complete Main
    Default                                  : No
    Forced                                   : No
    Audio #5
    ID                                       : 6
    Format                                   : AAC LC
    Format/Info                              : Advanced Audio Codec Low Complexity
    Codec ID                                 : A_AAC-2
    Duration                                 : 2 h 5 min
    Bit rate                                 : 192 kb/s
    Channel(s)                               : 2 channels
    Channel layout                           : L R
    Sampling rate                            : 44.1 kHz
    Frame rate                               : 43.066 FPS (1024 SPF)
    Compression mode                         : Lossy
    Stream size                              : 171 MiB (2%)
    Title                                    : Cantonese [AAC2.0]
    Language                                 : Cantonese
    Default                                  : No
    Forced                                   : No
    Audio #6
    ID                                       : 7
    Format                                   : AAC LC
    Format/Info                              : Advanced Audio Codec Low Complexity
    Codec ID                                 : A_AAC-2
    Duration                                 : 2 h 5 min
    Bit rate                                 : 192 kb/s
    Channel(s)                               : 2 channels
    Channel layout                           : L R
    Sampling rate                            : 44.1 kHz
    Frame rate                               : 43.066 FPS (1024 SPF)
    Compression mode                         : Lossy
    Stream size                              : 171 MiB (2%)
    Title                                    : Mandarin [AAC2.0]
    Language                                 : Chinese
    Default                                  : No
    Forced                                   : No
    



    #Link die, comment hoặc inbox mình reup.
    #https://www.hdvietnam.xyz/tags/hutapa/
     
    Chỉnh sửa cuối: 23/2/24

Chia sẻ trang này