[Fshare] [HH3D] Thế Giới Hoàn Mỹ - Perfect World (2021) 2160p HEVC ACC | Phụ Đề Việt

Thảo luận trong 'Phim hoạt hình' bắt đầu bởi Hư Không, 16/4/24.

  1. Hư Không

    Hư Không Well-Known Member

    Tham gia ngày:
    1/5/13
    Bài viết:
    225
    Đã được cảm ơn:
    3,061
    Giới tính:
    Nam

    Thế Giới Hoàn Mỹ (2021 - 2024)
    Perfect World

    [​IMG]

    [​IMG]

    Bộ phim "Thế Giới Hoàn Mỹ" được chuyển thể từ tiểu thuyết cùng tên, xoay quanh hành trình của nam chính Thạch Hạo. Hắn chọn con đường tu đạo và sinh ra để ứng kiếp, trải qua vô số lần tu luyện qua thời không và trải qua những thách thức của dòng chảy tháng năm, Thạch Hạo dần biến thành một người tự do, tự tại. Từ một người bình thường, hắn đã vươn lên trở thành huyền thoại.


    [​IMG]
    [​IMG]
    [​IMG]
    [​IMG]
    [​IMG]

    【 MEDIA INFO 】
    Mã:
    Complete name               : Perfect.World.2021.E158.4K.HEVC.AAC-HuKhong.mkv
    Format                      : Matroska
    
    
    Format version              : Version 4
    File size                   : 958 MiB
    Duration                    : 20 min 35 s
    Overall bit rate            : 6 501 kb/s
    Frame rate                  : 25.000 FPS
    Movie name                  : Perfect.World.2021.E158.4K.HEVC.AAC-HuKhong
    Video
    ID                          : 1
    Format                      : HEVC
    Format/Info                 : High Efficiency Video Coding
    Format profile              : Main@L5@Main
    Codec ID                    : V_MPEGH/ISO/HEVC
    Duration                    : 20 min 35 s
    Bit rate                    : 6 374 kb/s
    Width                       : 3 840 pixels
    Height                      : 1 636 pixels
    Display aspect ratio        : 2.35:1
    Frame rate mode             : Constant
    Frame rate                  : 25.000 FPS
    Color space                 : YUV
    Chroma subsampling          : 4:2:0
    Bit depth                   : 8 bits
    Bits/(Pixel*Frame)          : 0.041
    Stream size                 : 939 MiB (98%)
    Writing library             : Tencent-V265-1.6.9.1-p1k184g16lh64f4ra1.
    Default                     : Yes
    Forced                      : No
    Color range                 : Limited
    Audio
    ID                          : 2
    Format                      : AAC LC
    Format/Info                 : Advanced Audio Codec Low Complexity
    Codec ID                    : A_AAC-2
    Duration                    : 20 min 35 s
    Bit rate                    : 125 kb/s
    Channel(s)                  : 2 channels
    Channel layout              : L R
    Sampling rate               : 48.0 kHz
    Frame rate                  : 46.875 FPS (1024 SPF)
    Compression mode            : Lossy
    Delay relative to video     : -160 ms
    Stream size                 : 18.5 MiB (2%)
    Default                     : Yes
    Forced                      : No
    Text
    ID                          : 3
    Format                      : ASS
    Codec ID                    : S_TEXT/ASS
    Codec ID/Info               : Advanced Sub Station Alpha
    Duration                    : 14 min 3 s
    Bit rate                    : 90 b/s
    Frame rate                  : 0.178 FPS
    Count of elements           : 150
    Compression mode            : Lossless
    Stream size                 : 9.33 KiB (0%)
    Title                       : Vietnamese [Subtitle by Hư Không]
    Language                    : Vietnamese
    Default                     : Yes
    Forced                      : Yes
    
    [​IMG]


    【 LIÊN KẾT TẢI PHIM 】

    Link tải phim
    Nhấn nút Cảm ơn (dưới chân bài) để thấy link!


    【 FOLDER TỔNG HỢP HOẠT HÌNH 3D TRUNG QUỐC 】
    Link tải phim
    Nhấn nút Cảm ơn (dưới chân bài) để thấy link!


    【 SUBTITLE 】
    Phụ đề tiếng Việt có sẵn trong phim


    ------------------------------------------
    VUI LÒNG KHÔNG REUP
    【 NHẬN DONATE mua HDD mới - MOMO 0355116892 】




     
  2. tran-pham113

    tran-pham113 Active Member

    Tham gia ngày:
    20/7/23
    Bài viết:
    318
    Đã được cảm ơn:
    147
    Giới tính:
    Nam
    Nghề nghiệp:
    Công Nhân
    Nơi ở:
    Bình Dương
    đã nha
     
  3. Hư Không

    Hư Không Well-Known Member

    Tham gia ngày:
    1/5/13
    Bài viết:
    225
    Đã được cảm ơn:
    3,061
    Giới tính:
    Nam
    Cập nhật tập 159.
     
    tran-pham113 and nhatquang_fx like this.
  4. chjbicap

    chjbicap New Member

    Tham gia ngày:
    26/8/23
    Bài viết:
    19
    Đã được cảm ơn:
    3
    Giới tính:
    Nam
    tập 1-130 ở đâu bác
     
    tran-pham113 cảm ơn bài này.
  5. taibalem

    taibalem Active Member

    Tham gia ngày:
    2/4/10
    Bài viết:
    378
    Đã được cảm ơn:
    146
    Bác @Hư Không bộ này Bác có làm bản gộp 3,4 tập thành 1 tập không Bác.
    Rât mong Bác chiếu cố :)
     
  6. Hư Không

    Hư Không Well-Known Member

    Tham gia ngày:
    1/5/13
    Bài viết:
    225
    Đã được cảm ơn:
    3,061
    Giới tính:
    Nam
    Bác cần tải phim mới thì vào discord trong profile em nhé.
     
    Chỉnh sửa cuối: 18/5/24 lúc 23:17

Chia sẻ trang này