|Hành Động| The Darkest Hour (2011)3D Bluray.H-SBS.1080p

Thảo luận trong '3D' bắt đầu bởi trinhquocvinh82, 17/6/12.

  1. trinhquocvinh82

    trinhquocvinh82 Well-Known Member

    Tham gia ngày:
    3/9/09
    Bài viết:
    1,739
    Đã được cảm ơn:
    1,664
    [​IMG][/url][/IMG]
    Mã:
       General
          Unique ID : 217189613313619302093162430842856531203 (0xA36532AF6932D43FBB9C7A97541BE503)
          Complete name :The Darkest Hour 3D (2011)\The.Darkest.Hour.2011.3D.Bluray.H-SBS.1080p.mkv
    
    
    	

    Format : Matroska

    File size : 7.33 GiB Duration : 1h 28mn Overall bit rate : 11.8 Mbps Encoded date : UTC 2012-04-01 03:20:27 Writing application : mkvmerge v5.3.0 ('I could have danced') built on Feb 9 2012 10:38:07 Writing library : libebml v1.2.3 + libmatroska v1.3.0 Video #1 ID : 1 Format : AVC Format/Info : Advanced Video Codec Format profile : [email protected] Format settings, CABAC : Yes Format settings, ReFrames : 2 frames Muxing mode : Header stripping Codec ID : V_MPEG4/ISO/AVC Duration : 1h 28mn Bit rate mode : Variable Bit rate : 10.9 Mbps Maximum bit rate : 40.0 Mbps Width : 1 920 pixels Height : 1 080 pixels Display aspect ratio : 16:9 Frame rate : 23.976 fps Color space : YUV Chroma subsampling : 4:2:0 Bit depth : 8 bits Scan type : Progressive Bits/(Pixel*Frame) : 0.220 Stream size : 6.79 GiB (93%) Writing library : x264 core Color primaries : BT.709-5, BT.1361, IEC 61966-2-4, SMPTE RP177 Transfer characteristics : BT.709-5, BT.1361 Matrix coefficients : BT.709-5, BT.1361, IEC 61966-2-4 709, SMPTE RP177 Audio #2 ID : 2 Format : AC-3 Format/Info : Audio Coding 3 Mode extension : CM (complete main) Muxing mode : Header stripping Codec ID : A_AC3 Duration : 1h 28mn Bit rate mode : Constant Bit rate : 640 Kbps Channel(s) : 6 channels Channel positions : Front: L C R, Side: L R, LFE Sampling rate : 48.0 KHz Bit depth : 16 bits Compression mode : Lossy Stream size : 407 MiB (5%) Title : English DD 5.1 (HDDamMe) Language : English
    1 link: 7.3GB
     
  2. nvn01234

    nvn01234 New Member

    Tham gia ngày:
    4/6/12
    Bài viết:
    9
    Đã được cảm ơn:
    0
    Ðề: |Hành Động| The Darkest Hour (2011)3D Bluray.H-SBS.1080p

    cái này có sub k bác
     
  3. trinhquocvinh82

    trinhquocvinh82 Well-Known Member

    Tham gia ngày:
    3/9/09
    Bài viết:
    1,739
    Đã được cảm ơn:
    1,664
    Ðề: |Hành Động| The Darkest Hour (2011)3D Bluray.H-SBS.1080p

    hình như chưa có sub bạn ạ.
     
  4. nvn01234

    nvn01234 New Member

    Tham gia ngày:
    4/6/12
    Bài viết:
    9
    Đã được cảm ơn:
    0
    Ðề: |Hành Động| The Darkest Hour (2011)3D Bluray.H-SBS.1080p

    có sub trên subscene.com r đấy :D
     
  5. mk_svkt91

    mk_svkt91 Member

    Tham gia ngày:
    5/12/10
    Bài viết:
    56
    Đã được cảm ơn:
    0
    Ðề: |Hành Động| The Darkest Hour (2011)3D Bluray.H-SBS.1080p

    tự làm sub được mà
     
  6. alo0909097609

    alo0909097609 Active Member

    Tham gia ngày:
    30/12/08
    Bài viết:
    281
    Đã được cảm ơn:
    33
    Nơi ở:
    Ho Chi Minh City, Vietnam, Vietnam
    nội dung phim thế nào vậy chủ thớt....tks !!!!
     

Chia sẻ trang này