[Fshare] [ Hành Động] Śakra 2023 2160p WEB-DL DDP DV HEVC-HHWEB- Thiên Long Bát Bộ: Kiều Phong Truyện

Thảo luận trong 'WEB-DL, HDTV 4K' bắt đầu bởi canodinh, 22/1/23.

  1. canodinh

    canodinh Uploader

    Tham gia ngày:
    10/9/11
    Bài viết:
    5,664
    Đã được cảm ơn:
    72,439
    Śakra 2023 2160p WEB-DL DDP DV HEVC-HHWEB

    Thiên Long Bát Bộ: Kiều Phong Truyện

    [​IMG]


    Câu chuyện trong Thiên Long Bát Bộ: Kiều Phong Truyện sẽ diễn ra ở Tụ Hiền Trang, nơi Kiều Phong (Tiêu Phong - Chân Tử Đan đóng) bị quần hùng tìm ra chân tướng là người Khiết Đan, nghi là gián điệp và muốn sát hại chàng.

    Kiều Phong cũng rơi vào bẫy của Mộ Dung Phục, bị nghi đã giết chết phó bang chủ Cái Bang Mã Đại Nguyên. Mộ Dung Phục cũng sắp đặt khiến người yêu của Kiều Phong là A Châu (Trần Ngọc Kỳ) bị giết. Trước khi đánh, Kiều Phong lấy rượu ra uống xem như tuyệt giao với các bằng hữu trước đây. Trận chiến diễn ra, một mình Kiều Phong chống quần hùng, Hàng Long Thập Bát Chưởng lại một lần nữa uy trấn thiên hạ, đánh bại tất cả.


    General
    Unique ID : 33876816984597426942361745160924911223 (0x197C7008331A1C8CA14AD3DD455D5677)
    Complete name : C:\phim\Śakra.2023.2160p.WEB-DL.DDP.DV.HEVC-HHWEB.mkv
    Format : Matroska
    Format version : Version 4
    File size : 15.2 GiB
    Duration : 2 h 10 min
    Overall bit rate : 16.7 Mb/s
    Encoded date : UTC 2023-01-21 16:46:23
    Writing application : mkvmerge v71.1.0 ('Fortitude') 64-bit
    Writing library : libebml v1.4.4 + libmatroska v1.7.1

    Video
    ID : 1
    Format : HEVC
    Format/Info : High Efficiency Video Coding
    Format profile : Main [email protected]@High
    HDR format : Dolby Vision, Version 1.0, dvhe.05.06, BL+RPU
    Codec ID : V_MPEGH/ISO/HEVC
    Duration : 2 h 10 min
    Bit rate : 16.5 Mb/s
    Width : 3 840 pixels
    Height : 1 616 pixels
    Display aspect ratio : 2.40:1
    Frame rate mode : Constant
    Frame rate : 24.000 FPS
    Color space : YUV
    Chroma subsampling : 4:2:0
    Bit depth : 10 bits
    Bits/(Pixel*Frame) : 0.111
    Stream size : 15.1 GiB (99%)
    Default : Yes
    Forced : No

    Audio
    ID : 2
    Format : AAC LC
    Format/Info : Advanced Audio Codec Low Complexity
    Codec ID : A_AAC-2
    Duration : 2 h 10 min
    Bit rate : 137 kb/s
    Channel(s) : 2 channels
    Channel layout : L R
    Sampling rate : 48.0 kHz
    Frame rate : 46.875 FPS (1024 SPF)
    Compression mode : Lossy
    Stream size : 128 MiB (1%)
    Language : Chinese
    Default : Yes
    Forced : No






    [​IMG]
    [​IMG]
    [​IMG]



    Fshare ~15.19 GB

    Nhấn nút Cảm ơn (dưới chân bài) để thấy link!


    4Share

    Nhấn nút Cảm ơn (dưới chân bài) để thấy link!


    Sub

    https://subscene.com/subtitles/sakra-tin-lung-baat-bou

    Tổng hợp phim 18+

    Link topic https://hdvietnam.xyz/threads/mutil...ng-nhat-ban-au-my-cap-nhat-hang-ngay.1796232/

    Nhấn nút Cảm ơn (dưới chân bài) để thấy link!


    Tổng hợp phim full Menu (Thuyết minh+Sub Việt) bluray (nethd.org)

    Nhấn nút Cảm ơn (dưới chân bài) để thấy link!


    Tổng hợp phim bộ Lồng tiếng, thuyết minh, sub việt

    Nhấn nút Cảm ơn (dưới chân bài) để thấy link!


    Tổng hợp phim hàng ngày

    Link topic https://hdvietnam.xyz/threads/tong-hop-phim-bluray-remux-iso-cap-nhat-hang-ngay.1796055/

    Nhấn nút Cảm ơn (dưới chân bài) để thấy link!


    Tổng hợp phim bluray Remux ISO 4K






    mhd

    720p

    1080p

    Thuyết minh

    Remux

    ISO
     
    Chỉnh sửa cuối: 3/2/23 lúc 11:09
  2. namlp

    namlp Active Member

    Tham gia ngày:
    29/11/08
    Bài viết:
    216
    Đã được cảm ơn:
    103
    Phim này load về kg thấy có audio gì cả luôn, phần hình cũng sai màu luôn. Bác chủ xem lại.
     
    Chỉnh sửa cuối: 22/1/23
  3. Minzu1995

    Minzu1995 New Member

    Tham gia ngày:
    24/1/23
    Bài viết:
    22
    Đã được cảm ơn:
    1
    Giới tính:
    Nữ
    Thank adm
     
  4. pmega2010

    pmega2010 Active Member

    Tham gia ngày:
    23/2/10
    Bài viết:
    286
    Đã được cảm ơn:
    144
    Phim không âm thanh... Bạn UP bản khác nhé
     
  5. canodinh

    canodinh Uploader

    Tham gia ngày:
    10/9/11
    Bài viết:
    5,664
    Đã được cảm ơn:
    72,439
    Có nhé b,phim mặc định ko có,b vào audio là có kênh audio
     
  6. beeno92

    beeno92 Well-Known Member

    Tham gia ngày:
    29/11/09
    Bài viết:
    350
    Đã được cảm ơn:
    291
    sai màu do đầu box bác ko hỗ trợ dolby vision đó, kiếm tv và đầu box hỗ trợ thì đúng màu nhé
     
    canodinh cảm ơn bài này.
  7. farcry2708

    farcry2708 Member

    Tham gia ngày:
    7/10/09
    Bài viết:
    57
    Đã được cảm ơn:
    11
    Có sub ko bác
     
  8. pandemonium

    pandemonium Well-Known Member

    Tham gia ngày:
    11/2/12
    Bài viết:
    1,003
    Đã được cảm ơn:
    475
    Mong mỏi đợi sub ạ :D
     

Chia sẻ trang này