| Hành động|Kiếm hiệp| Tình cảm | SubVN - The Blood Brothers 1973 1080p x264 AC3 51-ERiE ~ Anh Em Kế

Thảo luận trong '4share.vn' bắt đầu bởi #kulee@, 15/10/13.

  1. #kulee@

    #kulee@ Banned

    Tham gia ngày:
    2/2/10
    Bài viết:
    2,170
    Đã được cảm ơn:
    3,315
    Anh em kết nghĩa or The blood brothers.1973.1080p.x264. Bluray (còn gọi Vụ án Trương Văn Tường hành thích Mã Tân Di)


    The Blood.Brothers.1973.1080p.x264.AC3.51.ERiE.mkv


    GIỚI THIỆU PHIM: Đây là phim kiếm hiệp cực hiếm thât hay của đạo điển tài danh Trương Triệt (Shaw brothers), full HD với 3 siêu sao Khương đại Vệ, Địch Long, Trần quang Thái. Một cốt truyện đầy kịch tính thật bi thảm về sự phản bội, trả thù tàn khốc của cuộc tình tay ba giữa huynh muội vào những năm suy tàn của triều đại nhà Thanh. Đây là bộ phim duy nhất mà Địch Long(Ti Lung) nhập vai một nhân vật phản diện, tàn ác trong mọi phim kiếm hiệp của mình. Phim quá hay này được ra mắt hôm nay là nhờ một bạn đọc yêu cầu, mình phải lùng sục hàng bao trang web, biết bao ngày mới tìm ra bản Bluray thật đẹp này phục vụ các bạn mê phim kiếm hiệp. Đặc biệt hơn nữa ở phim này, nhất là bản sub việt chưa ai làm ra, không đâu có; đầu tiên là từ Anh sang Việt do HLIEU nhưng lại thiếu hẵn chất kiếm hiệp. May nhờ có bạn Thainhi_vn, giỏi Hoa Ngữ đã giúp sức biến phim này có được một sub việt tuyệt vời, đậm đà bản sắc văn phong kiếm hiệp,, không thể chê vào đâu được. Do vậy sub Viêt này ra dược do công đầu là bạn Thainhi_vn; kế tiếp mới là HLIEU, xếp ở hàng thứ hai, không có gì lạ.


    [​IMG]


    THÔNG TIN PHIM:
    Tên gốc tiếng Hoa: Cì Mǎ - Thích Mã
    Sản xuất năm 1973.
    Phim dài 118 phút.
    Hãng Shaw brothers.
    Đạo diễn: Trương Triệt (Chang Cheh)
    Diễn viên chính trong phim:
    Địch Long( Lung Ti), Khương Đại Vệ(David chang), Trần Quan Thái(Chen Kuan-Tai} Tỉnh Lợi( Li Chin)
    Xếp hạng IMDB: 6,9/10 trên 345 người xem
    Đoạt giải: 3 giải tại Lie6nHoan phim năm 1973:
    -Asia-Pacific Film Festival 1973, tài tử xuất sắc nhất Khương đại vệ,. Địch Long: giải đặc biệt
    -Golden Horse Film Festival 1973: đặc biêt của ban Giám khảo: Địch Long.
    TÓM TẮT CHUYỆN PHIM:
    Trương Văn Tường: Chang Wen Hsiang (David Chiang) và Hoàng Tung(Chen Kuan-Tai) là những tên cướp đường.. Một ngày nọ, họ muốn cướp một người đi ngang nhưng gặp phải một kiếm sĩ giỏi tài năng có tên là Mã Tân Di: Ma Hsin I (Ti Lung). Dù họ không thắng được. Mã tân Di vẫn tặng tiền cho 2 người này và khuyên họ nên làm những chuyện lớn hơn Họ kết nghĩa làm anh em, làm việc cùng nhau, có rất nhiều chiến thắng nhiều bọn lục lâm nhiều nơi... Vợ Hoàng Tung là Mỹ Lan (Li Chingi) đâm ra mê đại ca Mã Tân Di này. Anh này cũng có cảm xúc với Mỹ Lany nhưng tham vọng lớn hơn nhiều. Ông học hành chăm chĩ, sau đó rời khỏi anh em của mình ở sơn trại và tham gia kỳ thi của triều đình, để có được sự nghiệp ngày cao hơn. Sau đó, họ được đoàn tụ trong doanh trại .Mã Tân Di đã trở thành một vị tướng, chiến thắng nhiều hơn nữa nhờ bộ hạ cũ và cả 2 anh em của mình. Dù lên tới chức Tổng đốc lưỡng Giang, họ Mã cũng còn tham quá mức, bị kích động bởi tay sai, luôn nghĩ rằng anh em gây rắc rối, cản trở con đường lập nghiệp mình. Ngoài ra, ông ta còn có mối tình vụng trộm với Mỹ Lan, và không muốn chia sẻ tình yêu ấy..Mã Tân Di có ý định giết nhị đệ Hoàng Tung nên ra lệnh đi cho anh này đi tiểu phỉ. Tam đệ Trương Văn Tường tình cờ khám phá mối tình bất chính kia, biết họ Mã sẽ giết nhị ca. Anh đi báo ngay cho anh mình nhưng anh này vẫn không tin nên cuối cùng bị giết trong cuộc phục kích. Trương Văn Tường nhất định báo thù lẽn vào giiáo trường đâm cho Mã Tân Di một đao gần chí mạng. Tướng quân họ Mã vẫn anh hùng, dù bị thương vẫn tin vào võ công của mình sẽ hạ và bắt được tên Trương Văn Tường, không cho binh lính can thiệp. Nhờ lòng tin báo thù và phù hộ của anh mình, Trương Văn Tường đã chiến thắng, giết đuợc họ Mã trong cuộc song đấu, giành lại công đạo cho Nhị ca mình. Sau đó, anh tự đầu hàng chịu trói đưa đi xử án. Dù anh có bút lục chi tiết vụ án nhưng họ vẫn bao che cho nhau, anh bị xứ đâm tim và rạch bụng để báo thù cho chủ tướng họ Mã của bọn tay sai.. .

    Mã:
    [/COLOR][/B]General:
    -Format: Mastroska
    -File size: 12.7GB.
    -Duration: 1h 58 min
    -Over all bit rate: 15.5Mbps
    b)Video:
    -Format: AVC
    -Format/ info: Avanced Video Codec.
    -Codec ID: V_MS/VFW/FOURCD/ X264
    -Bit rate: 14.7Mbps
    -Width: 1920pixels
    -Height: 1280 pixels:
    -Display aspect ratio: 16:9
    -Frame rate: 24,000 fps
    -Bit depth: 8 bits
    -Stream size: 12.1GiB
    c)Audio:
    -Format: AC-3
    -Bit rate: 512kbps
    -Channels: 6
    -Sampling rate: 48.0 KHz
    -Bit depth: 16 bits
    -Stream size: 432 MiB
    -Language: Chinese.
    d)Subtitles: Vienamese, English[B][COLOR=#000000]
    [​IMG]
    [​IMG]
    [​IMG]
    [​IMG]

    [video=youtube;Y1xZDDZO8so]http://www.youtube.com/watch?v=Y1xZDDZO8so[/video]

    [​IMG]

    [​IMG]

    1 LInk + SUB VN
    Nhấn nút Cảm ơn (dưới chân bài) để thấy link!


    KHO PHIM HD CỦA MÌNH
     
  2. fan2tech

    fan2tech Active Member

    Tham gia ngày:
    19/11/08
    Bài viết:
    705
    Đã được cảm ơn:
    27
    Ðề: | Hành động|Kiếm hiệp| Tình cảm | SubVN - The Blood Brothers 1973 1080p x264 AC3 51-ERiE ~ Anh Em Kết Nghĩa

    Phim hồi xưa có coi rồi,giờ xem lại cũng hay
     

Chia sẻ trang này