[Fshare] [ Hành Động] Hunters (S01-S02) 2160p AMZN WEB-DL DDP5 1 HDR H 265-XEBEC-Thợ Săn Phát Xít (Sub Việt)

Thảo luận trong 'Phim bộ - Series' bắt đầu bởi canodinh, 5/3/24.

  1. canodinh

    canodinh Uploader

    Tham gia ngày:
    10/9/11
    Bài viết:
    21,590
    Đã được cảm ơn:
    259,870
    Hunters (S01-S02) 2160p AMZN WEB-DL DDP5 1 HDR H 265-XEBEC

    Sub việt mux sẵn

    Thợ Săn Phát Xít

    [​IMG]


    Một nhóm thợ săn phát xít đa dạng sống ở thành phố New York năm 1977 phát hiện ra hàng trăm quan chức cấp cao của Đức Quốc xã đang âm mưu tạo ra một Đệ Tứ ở Hoa Kỳ. Đội ngũ chiết trung sẽ thực hiện một nhiệm vụ đẫm máu để đưa họ ra công lý.


    General
    Unique ID : 200968575359762745010595071455542457867 (0x973123C477EDD9FEECBCAA5FBF1D360B)
    Complete name : Hunters.S01E01.In.the.Belly.of.the.Whale.Part.1.2160p.AMZN.WEB-DL.DDP5.1.HDR.H.265-XEBEC.mkv
    Format : Matroska
    Format version : Version 4
    File size : 6.05 GiB
    Duration : 44 min 38 s
    Overall bit rate : 19.4 Mb/s
    Writing application : mkvmerge v82.0 ('I'm The President') 64-bit
    Writing library : libebml v1.4.5 + libmatroska v1.7.1

    Video
    ID : 1
    Format : HEVC
    Format/Info : High Efficiency Video Coding
    Format profile : Main 10@L5@Main
    HDR format : SMPTE ST 2094 App 4, Version 1, HDR10+ Profile B compatible
    Codec ID : V_MPEGH/ISO/HEVC
    Duration : 44 min 38 s
    Bit rate : 18.8 Mb/s
    Width : 3 840 pixels
    Height : 2 160 pixels
    Display aspect ratio : 16:9
    Frame rate mode : Constant
    Frame rate : 23.976 (24000/1001) FPS
    Color space : YUV
    Chroma subsampling : 4:2:0
    Bit depth : 10 bits
    Bits/(Pixel*Frame) : 0.094
    Stream size : 5.85 GiB (97%)
    Default : Yes
    Forced : No
    Color range : Limited
    Color primaries : BT.2020
    Transfer characteristics : PQ
    Matrix coefficients : BT.2020 non-constant
    Mastering display color primaries : Display P3
    Mastering display luminance : min: 0.0001 cd/m2, max: 1000 cd/m2
    Maximum Content Light Level : 999 cd/m2
    Maximum Frame-Average Light Level : 568 cd/m2

    Audio
    ID : 2
    Format : E-AC-3
    Format/Info : Enhanced AC-3
    Commercial name : Dolby Digital Plus
    Codec ID : A_EAC3
    Duration : 44 min 38 s
    Bit rate mode : Constant
    Bit rate : 640 kb/s
    Channel(s) : 6 channels
    Channel layout : L R C LFE Ls Rs
    Sampling rate : 48.0 kHz
    Frame rate : 31.250 FPS (1536 SPF)
    Compression mode : Lossy
    Stream size : 204 MiB (3%)
    Title : English
    Language : English
    Service kind : Complete Main
    Default : Yes
    Forced : No

    Text #1
    ID : 3
    Format : UTF-8
    Codec ID : S_TEXT/UTF8
    Codec ID/Info : UTF-8 Plain Text
    Duration : 20 s 646 ms
    Bit rate : 37 b/s
    Count of elements : 5
    Stream size : 98.0 Bytes (0%)
    Title : Forced
    Language : English,Vietnames
    Default : No
    Forced : Yes


    [​IMG] [​IMG]
    [​IMG] [​IMG]
    [​IMG] [​IMG]

    Fshare ~ GB

    Nhấn nút Cảm ơn (dưới chân bài) để thấy link!


    4Share

    Nhấn nút Cảm ơn (dưới chân bài) để thấy link!


    Sub Việt



    Tổng hợp phim 18+

    Link topic https://hdvietnam.xyz/threads/mutil...ng-nhat-ban-au-my-cap-nhat-hang-ngay.1796232/
    Nhấn nút Cảm ơn (dưới chân bài) để thấy link!


    Tổng hợp phim full Menu (Thuyết minh+Sub Việt) bluray (nethd.org)

    Nhấn nút Cảm ơn (dưới chân bài) để thấy link!


    Tổng hợp phim bộ Lồng tiếng, thuyết minh, sub việt

    Nhấn nút Cảm ơn (dưới chân bài) để thấy link!


    Tổng hợp phim hàng ngày

    Link topic https://hdvietnam.xyz/threads/tong-hop-phim-bluray-remux-iso-cap-nhat-hang-ngay.1796055/



    Nhấn nút Cảm ơn (dưới chân bài) để thấy link!




    Tổng hợp phim bluray Remux ISO 4K




    Mhd

    720p

    1080p

    Thuyết minh

    Remux

    ISO
     
    4lady64, hanutina, TRICDV and 6 others like this.

Chia sẻ trang này