[MULTI] [Hài] Anyone But You - Ghét Mà Vẫn Yêu (2023) WEB-DL DDP5.1 DV HDR H.265 (Vietsub) [4K]

Thảo luận trong 'WEB-DL, HDTV 4K' bắt đầu bởi kamenrider1997, 21/2/24.

  1. kamenrider1997

    kamenrider1997 Well-Known Member

    Tham gia ngày:
    21/4/12
    Bài viết:
    954
    Đã được cảm ơn:
    16,204
    Anyone But You - Ghét Mà Vẫn Yêu (2023) (Vietsub) [1080P-4K]
    [​IMG]

    【 INFO 】
    Ghét Mà Vẫn Yêu xoay quanh Bea (Sydney Sweeney) và Ben (Glen Powell) - hai kẻ ghét nhau như “chó với mèo” từ thời Đại học. Sau nhiều năm tái ngộ, họ đều trở nên “ngon” hơn xưa gấp bội. Nhân chuyến du lịch Sydney (Úc), cả hai quyết định vờ làm người yêu và thực hiện luôn một đám cưới giả vì những lý do riêng. Thế nhưng, đây cũng là lúc vô số sự kiện dở khóc dở cười ập đến khiến hai kẻ thù dần nảy sinh tình cảm.

    Folder gồm:

    Anyone.But.You.2023.1080p.AMZN.WEB-DL.DDP5.1.H.264-FLUX
    Anyone.but.You.2023.2160p.WEB-DL.DDP5.1.DV.HDR.H.265-FLUX
    Phim gồm Vietsub và các ngôn ngữ phụ đề khác. Mọi người nhớ chọn ngôn ngữ phụ đề yêu thích trước khi xem nhé! ^^

    【 MEDIA INFO 】
    HTML:
    General
    Unique ID                                : 133719726510424564245646850129248114182 (0x64997B8803C4532A9E31B241F3F3D606)
    Complete name                            : Anyone.but.You.2023.2160p.WEB-DL.DDP5.1.DV.HDR.H.265-FLUX.mkv
    Format                                   : Matroska
    
    
    Format version                           : Version 4
    File size                                : 17.8 GiB
    Duration                                 : 1 h 43 min
    Overall bit rate                         : 24.6 Mb/s
    Frame rate                               : 23.976 FPS
    Writing application                      : mkvmerge v82.0 ('I'm The President') 64-bit
    Writing library                          : libebml v1.4.5 + libmatroska v1.7.1
    Video
    ID                                       : 1
    Format                                   : HEVC
    Format/Info                              : High Efficiency Video Coding
    Format profile                           : Main 10@L5@High
    HDR format                               : Dolby Vision, Version 1.0, Profile 8.1, dvhe.08.06, BL+RPU, HDR10 compatible / SMPTE ST 2086, Version HDR10, HDR10 compatible
    Codec ID                                 : V_MPEGH/ISO/HEVC
    Duration                                 : 1 h 43 min
    Bit rate                                 : 23.9 Mb/s
    Width                                    : 3 840 pixels
    Height                                   : 1 604 pixels
    Display aspect ratio                     : 2.39:1
    Frame rate mode                          : Constant
    Frame rate                               : 23.976 (24000/1001) FPS
    Original frame rate                      : 23.976 (23976/1000) FPS
    Color space                              : YUV
    Chroma subsampling                       : 4:2:0 (Type 2)
    Bit depth                                : 10 bits
    Bits/(Pixel*Frame)                       : 0.162
    Stream size                              : 17.3 GiB (97%)
    Language                                 : English
    Default                                  : Yes
    Forced                                   : No
    Color range                              : Limited
    Color primaries                          : BT.2020
    Transfer characteristics                 : PQ
    Matrix coefficients                      : BT.2020 non-constant
    Mastering display color primaries        : BT.2020
    Mastering display luminance              : min: 0.0050 cd/m2, max: 1000 cd/m2
    Maximum Content Light Level              : 637 cd/m2
    Maximum Frame-Average Light Level        : 148 cd/m2
    Audio
    ID                                       : 2
    Format                                   : E-AC-3
    Format/Info                              : Enhanced AC-3
    Commercial name                          : Dolby Digital Plus
    Codec ID                                 : A_EAC3
    Duration                                 : 1 h 43 min
    Bit rate mode                            : Constant
    Bit rate                                 : 640 kb/s
    Channel(s)                               : 6 channels
    Channel layout                           : L R C LFE Ls Rs
    Sampling rate                            : 48.0 kHz
    Frame rate                               : 31.250 FPS (1536 SPF)
    Compression mode                         : Lossy
    Delay relative to video                  : 12 ms
    Stream size                              : 474 MiB (3%)
    Language                                 : English (US)
    Service kind                             : Complete Main
    Default                                  : Yes
    Forced                                   : No
    Text #1
    ID                                       : 3
    Format                                   : UTF-8
    Codec ID                                 : S_TEXT/UTF8
    Codec ID/Info                            : UTF-8 Plain Text
    Duration                                 : 1 h 18 min
    Bit rate                                 : 0 b/s
    Frame rate                               : 0.001 FPS
    Count of elements                        : 4
    Stream size                              : 130 Bytes (0%)
    Title                                    : Forced
    Language                                 : English (US)
    Default                                  : Yes
    Forced                                   : Yes
    Text #2
    ID                                       : 4
    Format                                   : UTF-8
    Codec ID                                 : S_TEXT/UTF8
    Codec ID/Info                            : UTF-8 Plain Text
    Duration                                 : 1 h 40 min
    Bit rate                                 : 86 b/s
    Frame rate                               : 0.296 FPS
    Count of elements                        : 1778
    Stream size                              : 63.4 KiB (0%)
    Language                                 : English (US)
    Default                                  : No
    Forced                                   : No
    Text #3
    ID                                       : 5
    Format                                   : UTF-8
    Codec ID                                 : S_TEXT/UTF8
    Codec ID/Info                            : UTF-8 Plain Text
    Duration                                 : 1 h 42 min
    Bit rate                                 : 91 b/s
    Frame rate                               : 0.314 FPS
    Count of elements                        : 1932
    Stream size                              : 69.1 KiB (0%)
    Title                                    : SDH
    Language                                 : English (US)
    Default                                  : No
    Forced                                   : No
    Text #4
    ID                                       : 6
    Format                                   : UTF-8
    Codec ID                                 : S_TEXT/UTF8
    Codec ID/Info                            : UTF-8 Plain Text
    Duration                                 : 1 h 42 min
    Bit rate                                 : 111 b/s
    Frame rate                               : 0.252 FPS
    Count of elements                        : 1548
    Stream size                              : 83.8 KiB (0%)
    Language                                 : Arabic
    Default                                  : No
    Forced                                   : No
    Text #5
    ID                                       : 7
    Format                                   : UTF-8
    Codec ID                                 : S_TEXT/UTF8
    Codec ID/Info                            : UTF-8 Plain Text
    Duration                                 : 1 h 42 min
    Bit rate                                 : 97 b/s
    Frame rate                               : 0.253 FPS
    Count of elements                        : 1551
    Stream size                              : 73.0 KiB (0%)
    Language                                 : Bulgarian
    Default                                  : No
    Forced                                   : No
    Text #6
    ID                                       : 8
    Format                                   : UTF-8
    Codec ID                                 : S_TEXT/UTF8
    Codec ID/Info                            : UTF-8 Plain Text
    Duration                                 : 1 h 42 min
    Bit rate                                 : 57 b/s
    Frame rate                               : 0.252 FPS
    Count of elements                        : 1548
    Stream size                              : 42.8 KiB (0%)
    Title                                    : Simplified
    Language                                 : Chinese (Simplified)
    Default                                  : No
    Forced                                   : No
    Text #7
    ID                                       : 9
    Format                                   : UTF-8
    Codec ID                                 : S_TEXT/UTF8
    Codec ID/Info                            : UTF-8 Plain Text
    Duration                                 : 1 h 42 min
    Bit rate                                 : 54 b/s
    Frame rate                               : 0.258 FPS
    Count of elements                        : 1581
    Stream size                              : 40.9 KiB (0%)
    Title                                    : Traditional
    Language                                 : Chinese (Traditional)
    Default                                  : No
    Forced                                   : No
    Text #8
    ID                                       : 10
    Format                                   : UTF-8
    Codec ID                                 : S_TEXT/UTF8
    Codec ID/Info                            : UTF-8 Plain Text
    Duration                                 : 1 h 42 min
    Bit rate                                 : 59 b/s
    Frame rate                               : 0.186 FPS
    Count of elements                        : 1142
    Stream size                              : 44.8 KiB (0%)
    Language                                 : Danish
    Default                                  : No
    Forced                                   : No
    Text #9
    ID                                       : 11
    Format                                   : UTF-8
    Codec ID                                 : S_TEXT/UTF8
    Codec ID/Info                            : UTF-8 Plain Text
    Duration                                 : 1 h 42 min
    Bit rate                                 : 101 b/s
    Frame rate                               : 0.252 FPS
    Count of elements                        : 1548
    Stream size                              : 76.1 KiB (0%)
    Language                                 : Greek
    Default                                  : No
    Forced                                   : No
    Text #10
    ID                                       : 12
    Format                                   : UTF-8
    Codec ID                                 : S_TEXT/UTF8
    Codec ID/Info                            : UTF-8 Plain Text
    Duration                                 : 1 h 42 min
    Bit rate                                 : 52 b/s
    Frame rate                               : 0.254 FPS
    Count of elements                        : 1562
    Stream size                              : 39.2 KiB (0%)
    Language                                 : Estonian
    Default                                  : No
    Forced                                   : No
    Text #11
    ID                                       : 13
    Format                                   : UTF-8
    Codec ID                                 : S_TEXT/UTF8
    Codec ID/Info                            : UTF-8 Plain Text
    Duration                                 : 1 h 42 min
    Bit rate                                 : 60 b/s
    Frame rate                               : 0.264 FPS
    Count of elements                        : 1621
    Stream size                              : 45.6 KiB (0%)
    Language                                 : Finnish
    Default                                  : No
    Forced                                   : No
    Text #12
    ID                                       : 14
    Format                                   : UTF-8
    Codec ID                                 : S_TEXT/UTF8
    Codec ID/Info                            : UTF-8 Plain Text
    Duration                                 : 1 h 42 min
    Bit rate                                 : 53 b/s
    Frame rate                               : 0.221 FPS
    Count of elements                        : 1358
    Stream size                              : 40.4 KiB (0%)
    Language                                 : French (FR)
    Default                                  : No
    Forced                                   : No
    Text #13
    ID                                       : 15
    Format                                   : UTF-8
    Codec ID                                 : S_TEXT/UTF8
    Codec ID/Info                            : UTF-8 Plain Text
    Duration                                 : 1 h 42 min
    Bit rate                                 : 97 b/s
    Frame rate                               : 0.253 FPS
    Count of elements                        : 1553
    Stream size                              : 73.2 KiB (0%)
    Language                                 : Hebrew
    Default                                  : No
    Forced                                   : No
    Text #14
    ID                                       : 16
    Format                                   : UTF-8
    Codec ID                                 : S_TEXT/UTF8
    Codec ID/Info                            : UTF-8 Plain Text
    Duration                                 : 1 h 42 min
    Bit rate                                 : 62 b/s
    Frame rate                               : 0.251 FPS
    Count of elements                        : 1541
    Stream size                              : 46.8 KiB (0%)
    Language                                 : Indonesian
    Default                                  : No
    Forced                                   : No
    Text #15
    ID                                       : 17
    Format                                   : UTF-8
    Codec ID                                 : S_TEXT/UTF8
    Codec ID/Info                            : UTF-8 Plain Text
    Duration                                 : 1 h 42 min
    Bit rate                                 : 61 b/s
    Frame rate                               : 0.239 FPS
    Count of elements                        : 1470
    Stream size                              : 45.8 KiB (0%)
    Language                                 : Italian (IT)
    Default                                  : No
    Forced                                   : No
    Text #16
    ID                                       : 18
    Format                                   : UTF-8
    Codec ID                                 : S_TEXT/UTF8
    Codec ID/Info                            : UTF-8 Plain Text
    Duration                                 : 1 h 42 min
    Bit rate                                 : 60 b/s
    Frame rate                               : 0.251 FPS
    Count of elements                        : 1540
    Stream size                              : 45.1 KiB (0%)
    Language                                 : Lithuanian
    Default                                  : No
    Forced                                   : No
    Text #17
    ID                                       : 19
    Format                                   : UTF-8
    Codec ID                                 : S_TEXT/UTF8
    Codec ID/Info                            : UTF-8 Plain Text
    Duration                                 : 1 h 42 min
    Bit rate                                 : 62 b/s
    Frame rate                               : 0.260 FPS
    Count of elements                        : 1599
    Stream size                              : 47.0 KiB (0%)
    Language                                 : Latvian
    Default                                  : No
    Forced                                   : No
    Text #18
    ID                                       : 20
    Format                                   : UTF-8
    Codec ID                                 : S_TEXT/UTF8
    Codec ID/Info                            : UTF-8 Plain Text
    Duration                                 : 1 h 42 min
    Bit rate                                 : 54 b/s
    Frame rate                               : 0.181 FPS
    Count of elements                        : 1112
    Stream size                              : 40.7 KiB (0%)
    Language                                 : Dutch
    Default                                  : No
    Forced                                   : No
    Text #19
    ID                                       : 21
    Format                                   : UTF-8
    Codec ID                                 : S_TEXT/UTF8
    Codec ID/Info                            : UTF-8 Plain Text
    Duration                                 : 1 h 42 min
    Bit rate                                 : 51 b/s
    Frame rate                               : 0.157 FPS
    Count of elements                        : 964
    Stream size                              : 38.9 KiB (0%)
    Language                                 : Norwegian
    Default                                  : No
    Forced                                   : No
    Text #20
    ID                                       : 22
    Format                                   : UTF-8
    Codec ID                                 : S_TEXT/UTF8
    Codec ID/Info                            : UTF-8 Plain Text
    Duration                                 : 1 h 42 min
    Bit rate                                 : 63 b/s
    Frame rate                               : 0.239 FPS
    Count of elements                        : 1470
    Stream size                              : 47.3 KiB (0%)
    Language                                 : Portuguese (PT)
    Default                                  : No
    Forced                                   : No
    Text #21
    ID                                       : 23
    Format                                   : UTF-8
    Codec ID                                 : S_TEXT/UTF8
    Codec ID/Info                            : UTF-8 Plain Text
    Duration                                 : 1 h 42 min
    Bit rate                                 : 97 b/s
    Frame rate                               : 0.250 FPS
    Count of elements                        : 1533
    Stream size                              : 73.3 KiB (0%)
    Language                                 : Russian
    Default                                  : No
    Forced                                   : No
    Text #22
    ID                                       : 24
    Format                                   : UTF-8
    Codec ID                                 : S_TEXT/UTF8
    Codec ID/Info                            : UTF-8 Plain Text
    Duration                                 : 1 h 42 min
    Bit rate                                 : 65 b/s
    Frame rate                               : 0.252 FPS
    Count of elements                        : 1544
    Stream size                              : 49.0 KiB (0%)
    Language                                 : Slovak
    Default                                  : No
    Forced                                   : No
    Text #23
    ID                                       : 25
    Format                                   : UTF-8
    Codec ID                                 : S_TEXT/UTF8
    Codec ID/Info                            : UTF-8 Plain Text
    Duration                                 : 1 h 42 min
    Bit rate                                 : 53 b/s
    Frame rate                               : 0.218 FPS
    Count of elements                        : 1337
    Stream size                              : 39.9 KiB (0%)
    Language                                 : Slovenian
    Default                                  : No
    Forced                                   : No
    Text #24
    ID                                       : 26
    Format                                   : UTF-8
    Codec ID                                 : S_TEXT/UTF8
    Codec ID/Info                            : UTF-8 Plain Text
    Duration                                 : 1 h 42 min
    Bit rate                                 : 52 b/s
    Frame rate                               : 0.174 FPS
    Count of elements                        : 1071
    Stream size                              : 39.5 KiB (0%)
    Language                                 : Swedish
    Default                                  : No
    Forced                                   : No
    Text #25
    ID                                       : 27
    Format                                   : UTF-8
    Codec ID                                 : S_TEXT/UTF8
    Codec ID/Info                            : UTF-8 Plain Text
    Duration                                 : 1 h 42 min
    Bit rate                                 : 151 b/s
    Frame rate                               : 0.252 FPS
    Count of elements                        : 1545
    Stream size                              : 114 KiB (0%)
    Language                                 : Thai
    Default                                  : No
    Forced                                   : No
    Text #26
    ID                                       : 28
    Format                                   : UTF-8
    Codec ID                                 : S_TEXT/UTF8
    Codec ID/Info                            : UTF-8 Plain Text
    Duration                                 : 1 h 42 min
    Bit rate                                 : 104 b/s
    Frame rate                               : 0.252 FPS
    Count of elements                        : 1548
    Stream size                              : 78.2 KiB (0%)
    Language                                 : Ukrainian
    Default                                  : No
    Forced                                   : No
    Text #27
    ID                                       : 29
    Format                                   : UTF-8
    Codec ID                                 : S_TEXT/UTF8
    Codec ID/Info                            : UTF-8 Plain Text
    Duration                                 : 1 h 42 min
    Bit rate                                 : 91 b/s
    Frame rate                               : 0.252 FPS
    Count of elements                        : 1544
    Stream size                              : 68.4 KiB (0%)
    Language                                 : Vietnamese
    Default                                  : No
    Forced                                   : No
    Text #28
    ID                                       : 30
    Format                                   : UTF-8
    Codec ID                                 : S_TEXT/UTF8
    Codec ID/Info                            : UTF-8 Plain Text
    Duration                                 : 1 h 42 min
    Bit rate                                 : 52 b/s
    Frame rate                               : 0.254 FPS
    Count of elements                        : 1561
    Stream size                              : 39.2 KiB (0%)
    Title                                    : Traditional
    Language                                 : Cantonese (Hant)
    Default                                  : No
    Forced                                   : No
    Menu
    00:00:00.000                             : en:Studio Logo
    00:01:17.000                             : en:Scene 2
    00:08:21.000                             : en:Scene 3
    00:10:50.000                             : en:Scene 4
    00:13:30.000                             : en:Title Sequence
    00:13:33.000                             : en:Scene 6
    00:21:31.000                             : en:Scene 7
    00:29:43.000                             : en:Scene 8
    00:36:51.000                             : en:Scene 9
    00:44:12.000                             : en:Scene 10
    00:51:39.000                             : en:Scene 11
    00:59:00.000                             : en:Scene 12
    01:07:01.000                             : en:Scene 13
    01:14:05.000                             : en:Scene 14
    01:21:17.000                             : en:Scene 15
    01:27:52.000                             : en:Scene 16
    01:35:59.000                             : en:End Credits

    【 SCREENSHOT 】
    [​IMG]
    [​IMG]
    [​IMG]

    [​IMG]
    Download:
    Nhấn nút Cảm ơn (dưới chân bài) để thấy link!

    Tổng hợp phim Bom tấn:
    Nhấn nút Cảm ơn (dưới chân bài) để thấy link!


    ***TỔNG HỢP PHIM/NHẠC/SÁCH***
    Nhấn nút Cảm ơn (dưới chân bài) để thấy link!


    DANH SÁCH PHIM MỚI CẬP NHẬT LIÊN TỤC:
    Nhấn nút Cảm ơn (dưới chân bài) để thấy link!


    [​IMG]
    Download:
    Nhấn nút Cảm ơn (dưới chân bài) để thấy link!

    Tổng hợp phim Bom tấn:
    Nhấn nút Cảm ơn (dưới chân bài) để thấy link!


    ***TỔNG HỢP PHIM/NHẠC/SÁCH***
    Nhấn nút Cảm ơn (dưới chân bài) để thấy link!
     

Chia sẻ trang này