[MULTI] [Gia Đình] The Velveteen Rabbit - Chú Thỏ Nhung (2023) WEB-DL DDP5.1 Atmos DV HDR (Vietsub) [4K]

Thảo luận trong 'WEB-DL, HDTV 4K' bắt đầu bởi kamenrider1997, 27/11/23.

  1. kamenrider1997

    kamenrider1997 Well-Known Member

    Tham gia ngày:
    21/4/12
    Bài viết:
    912
    Đã được cảm ơn:
    14,659
    The Velveteen Rabbit - Chú Thỏ Nhung (2023) (Vietsub) [1080P-4K]
    [​IMG]

    【 INFO 】
    Phim dựa trên tựa sách kinh điển được nhiều đọc giả yêu thích. Với cậu bé William bảy tuổi thì món quà Giáng Sinh mà cậu nhận được không chỉ là một món đồ chơi yêu thích, mà còn là người bạn tri kỷ và chìa khóa mở ra một thế giới đầy màu nhiệm.

    Folder gồm:

    The.Velveteen.Rabbit.2023.1080p.ATVP.WEB-DL.DDP5.1.Atmos.H.264-FLUX
    The.Velveteen.Rabbit.2023.2160p.ATVP.WEB-DL.DDP5.1.Atmos.DV.HDR.H.265-FLUX

    【 MEDIA INFO 】
    HTML:
    General
    Unique ID                                : 205843124330128243478544816308582445304 (0x9ADBF196480883D182A8D6593B7D70F8)
    Complete name                            : The.Velveteen.Rabbit.2023.2160p.ATVP.WEB-DL.DDP5.1.Atmos.DV.HDR.H.265-FLUX.mkv
    Format                                   : Matroska
    Format version                           : Version 4
    
    
    File size                                : 7.75 GiB
    Duration                                 : 44 min 16 s
    Overall bit rate                         : 25.1 Mb/s
    Frame rate                               : 23.976 FPS
    Writing application                      : mkvmerge v79.0 ('Funeral Pyres') 64-bit
    Writing library                          : libebml v1.4.4 + libmatroska v1.7.1
    Video
    ID                                       : 1
    Format                                   : HEVC
    Format/Info                              : High Efficiency Video Coding
    Format profile                           : Main 10@L5@High
    HDR format                               : Dolby Vision, Version 1.0, dvhe.08.06, BL+RPU, HDR10 compatible / SMPTE ST 2094 App 4, Version 1, HDR10+ Profile B compatible
    Codec ID                                 : V_MPEGH/ISO/HEVC
    Duration                                 : 44 min 16 s
    Bit rate                                 : 24.3 Mb/s
    Width                                    : 3 840 pixels
    Height                                   : 2 160 pixels
    Display aspect ratio                     : 16:9
    Frame rate mode                          : Constant
    Frame rate                               : 23.976 (24000/1001) FPS
    Original frame rate                      : 23.976 (23976/1000) FPS
    Color space                              : YUV
    Chroma subsampling                       : 4:2:0 (Type 2)
    Bit depth                                : 10 bits
    Bits/(Pixel*Frame)                       : 0.122
    Stream size                              : 7.51 GiB (97%)
    Language                                 : English
    Default                                  : Yes
    Forced                                   : No
    Color range                              : Limited
    Color primaries                          : BT.2020
    Transfer characteristics                 : PQ
    Matrix coefficients                      : BT.2020 non-constant
    Mastering display color primaries        : Display P3
    Mastering display luminance              : min: 0.0050 cd/m2, max: 1000 cd/m2
    Maximum Content Light Level              : 871 cd/m2
    Maximum Frame-Average Light Level        : 101 cd/m2
    Audio
    ID                                       : 2
    Format                                   : E-AC-3 JOC
    Format/Info                              : Enhanced AC-3 with Joint Object Coding
    Commercial name                          : Dolby Digital Plus with Dolby Atmos
    Codec ID                                 : A_EAC3
    Duration                                 : 44 min 16 s
    Bit rate mode                            : Constant
    Bit rate                                 : 768 kb/s
    Channel(s)                               : 6 channels
    Channel layout                           : L R C LFE Ls Rs
    Sampling rate                            : 48.0 kHz
    Frame rate                               : 31.250 FPS (1536 SPF)
    Compression mode                         : Lossy
    Stream size                              : 243 MiB (3%)
    Language                                 : English
    Service kind                             : Complete Main
    Default                                  : Yes
    Forced                                   : No
    Complexity index                         : 16
    Number of dynamic objects                : 15
    Bed channel count                        : 1 channel
    Bed channel configuration                : LFE
    Text #1
    ID                                       : 3
    Format                                   : UTF-8
    Codec ID                                 : S_TEXT/UTF8
    Codec ID/Info                            : UTF-8 Plain Text
    Duration                                 : 41 min 58 s
    Bit rate                                 : 51 b/s
    Frame rate                               : 0.202 FPS
    Count of elements                        : 508
    Stream size                              : 15.9 KiB (0%)
    Language                                 : English
    Default                                  : No
    Forced                                   : No
    Text #2
    ID                                       : 4
    Format                                   : UTF-8
    Codec ID                                 : S_TEXT/UTF8
    Codec ID/Info                            : UTF-8 Plain Text
    Duration                                 : 42 min 26 s
    Bit rate                                 : 65 b/s
    Frame rate                               : 0.252 FPS
    Count of elements                        : 643
    Stream size                              : 20.3 KiB (0%)
    Title                                    : SDH
    Language                                 : English
    Default                                  : No
    Forced                                   : No
    Text #3
    ID                                       : 5
    Format                                   : UTF-8
    Codec ID                                 : S_TEXT/UTF8
    Codec ID/Info                            : UTF-8 Plain Text
    Duration                                 : 42 min 27 s
    Bit rate                                 : 66 b/s
    Frame rate                               : 0.253 FPS
    Count of elements                        : 644
    Stream size                              : 20.7 KiB (0%)
    Title                                    : SDH
    Language                                 : English
    Default                                  : No
    Forced                                   : No
    Text #4
    ID                                       : 6
    Format                                   : UTF-8
    Codec ID                                 : S_TEXT/UTF8
    Codec ID/Info                            : UTF-8 Plain Text
    Duration                                 : 42 min 27 s
    Bit rate                                 : 66 b/s
    Frame rate                               : 0.253 FPS
    Count of elements                        : 644
    Stream size                              : 20.7 KiB (0%)
    Title                                    : SDH
    Language                                 : English
    Default                                  : No
    Forced                                   : No
    Text #5
    ID                                       : 7
    Format                                   : UTF-8
    Codec ID                                 : S_TEXT/UTF8
    Codec ID/Info                            : UTF-8 Plain Text
    Duration                                 : 43 min 59 s
    Bit rate                                 : 75 b/s
    Frame rate                               : 0.191 FPS
    Count of elements                        : 504
    Stream size                              : 24.4 KiB (0%)
    Language                                 : Arabic
    Default                                  : No
    Forced                                   : No
    Text #6
    ID                                       : 8
    Format                                   : UTF-8
    Codec ID                                 : S_TEXT/UTF8
    Codec ID/Info                            : UTF-8 Plain Text
    Duration                                 : 43 min 26 s
    Bit rate                                 : 70 b/s
    Frame rate                               : 0.150 FPS
    Count of elements                        : 391
    Stream size                              : 22.4 KiB (0%)
    Language                                 : Bulgarian
    Default                                  : No
    Forced                                   : No
    Text #7
    ID                                       : 9
    Format                                   : UTF-8
    Codec ID                                 : S_TEXT/UTF8
    Codec ID/Info                            : UTF-8 Plain Text
    Duration                                 : 43 min 26 s
    Bit rate                                 : 44 b/s
    Frame rate                               : 0.193 FPS
    Count of elements                        : 503
    Stream size                              : 14.1 KiB (0%)
    Title                                    : Simplified
    Language                                 : Chinese (Simplified)
    Default                                  : No
    Forced                                   : No
    Text #8
    ID                                       : 10
    Format                                   : UTF-8
    Codec ID                                 : S_TEXT/UTF8
    Codec ID/Info                            : UTF-8 Plain Text
    Duration                                 : 43 min 59 s
    Bit rate                                 : 41 b/s
    Frame rate                               : 0.191 FPS
    Count of elements                        : 504
    Stream size                              : 13.3 KiB (0%)
    Title                                    : Traditional
    Language                                 : Chinese (Traditional)
    Default                                  : No
    Forced                                   : No
    Text #9
    ID                                       : 11
    Format                                   : UTF-8
    Codec ID                                 : S_TEXT/UTF8
    Codec ID/Info                            : UTF-8 Plain Text
    Duration                                 : 43 min 59 s
    Bit rate                                 : 43 b/s
    Frame rate                               : 0.178 FPS
    Count of elements                        : 470
    Stream size                              : 14.1 KiB (0%)
    Language                                 : Czech
    Default                                  : No
    Forced                                   : No
    Text #10
    ID                                       : 12
    Format                                   : UTF-8
    Codec ID                                 : S_TEXT/UTF8
    Codec ID/Info                            : UTF-8 Plain Text
    Duration                                 : 44 min 3 s
    Bit rate                                 : 50 b/s
    Frame rate                               : 0.166 FPS
    Count of elements                        : 439
    Stream size                              : 16.4 KiB (0%)
    Language                                 : Danish
    Default                                  : No
    Forced                                   : No
    Text #11
    ID                                       : 13
    Format                                   : UTF-8
    Codec ID                                 : S_TEXT/UTF8
    Codec ID/Info                            : UTF-8 Plain Text
    Duration                                 : 43 min 57 s
    Bit rate                                 : 52 b/s
    Frame rate                               : 0.187 FPS
    Count of elements                        : 493
    Stream size                              : 16.8 KiB (0%)
    Language                                 : German
    Default                                  : No
    Forced                                   : No
    Text #12
    ID                                       : 14
    Format                                   : UTF-8
    Codec ID                                 : S_TEXT/UTF8
    Codec ID/Info                            : UTF-8 Plain Text
    Duration                                 : 43 min 59 s
    Bit rate                                 : 75 b/s
    Frame rate                               : 0.182 FPS
    Count of elements                        : 480
    Stream size                              : 24.4 KiB (0%)
    Language                                 : Greek
    Default                                  : No
    Forced                                   : No
    Text #13
    ID                                       : 15
    Format                                   : UTF-8
    Codec ID                                 : S_TEXT/UTF8
    Codec ID/Info                            : UTF-8 Plain Text
    Duration                                 : 43 min 58 s
    Bit rate                                 : 48 b/s
    Frame rate                               : 0.192 FPS
    Count of elements                        : 507
    Stream size                              : 15.5 KiB (0%)
    Title                                    : Latin American
    Language                                 : Spanish (Latin America)
    Default                                  : No
    Forced                                   : No
    Text #14
    ID                                       : 16
    Format                                   : UTF-8
    Codec ID                                 : S_TEXT/UTF8
    Codec ID/Info                            : UTF-8 Plain Text
    Duration                                 : 44 min 1 s
    Bit rate                                 : 46 b/s
    Frame rate                               : 0.174 FPS
    Count of elements                        : 460
    Stream size                              : 14.9 KiB (0%)
    Language                                 : Spanish (ES)
    Default                                  : No
    Forced                                   : No
    Text #15
    ID                                       : 17
    Format                                   : UTF-8
    Codec ID                                 : S_TEXT/UTF8
    Codec ID/Info                            : UTF-8 Plain Text
    Duration                                 : 43 min 26 s
    Bit rate                                 : 43 b/s
    Frame rate                               : 0.172 FPS
    Count of elements                        : 449
    Stream size                              : 14.0 KiB (0%)
    Language                                 : Estonian
    Default                                  : No
    Forced                                   : No
    Text #16
    ID                                       : 18
    Format                                   : UTF-8
    Codec ID                                 : S_TEXT/UTF8
    Codec ID/Info                            : UTF-8 Plain Text
    Duration                                 : 44 min 3 s
    Bit rate                                 : 41 b/s
    Frame rate                               : 0.145 FPS
    Count of elements                        : 382
    Stream size                              : 13.5 KiB (0%)
    Language                                 : Finnish
    Default                                  : No
    Forced                                   : No
    Text #17
    ID                                       : 19
    Format                                   : UTF-8
    Codec ID                                 : S_TEXT/UTF8
    Codec ID/Info                            : UTF-8 Plain Text
    Duration                                 : 42 min 52 s
    Bit rate                                 : 50 b/s
    Frame rate                               : 0.217 FPS
    Count of elements                        : 558
    Stream size                              : 16.0 KiB (0%)
    Title                                    : Canadian
    Language                                 : French (CA)
    Default                                  : No
    Forced                                   : No
    Text #18
    ID                                       : 20
    Format                                   : UTF-8
    Codec ID                                 : S_TEXT/UTF8
    Codec ID/Info                            : UTF-8 Plain Text
    Duration                                 : 42 min 52 s
    Bit rate                                 : 50 b/s
    Frame rate                               : 0.217 FPS
    Count of elements                        : 558
    Stream size                              : 16.0 KiB (0%)
    Language                                 : French (FR)
    Default                                  : No
    Forced                                   : No
    Text #19
    ID                                       : 21
    Format                                   : UTF-8
    Codec ID                                 : S_TEXT/UTF8
    Codec ID/Info                            : UTF-8 Plain Text
    Duration                                 : 43 min 59 s
    Bit rate                                 : 72 b/s
    Frame rate                               : 0.191 FPS
    Count of elements                        : 504
    Stream size                              : 23.3 KiB (0%)
    Language                                 : Hebrew
    Default                                  : No
    Forced                                   : No
    Text #20
    ID                                       : 22
    Format                                   : UTF-8
    Codec ID                                 : S_TEXT/UTF8
    Codec ID/Info                            : UTF-8 Plain Text
    Duration                                 : 43 min 59 s
    Bit rate                                 : 129 b/s
    Frame rate                               : 0.191 FPS
    Count of elements                        : 504
    Stream size                              : 41.6 KiB (0%)
    Language                                 : Hindi
    Default                                  : No
    Forced                                   : No
    Text #21
    ID                                       : 23
    Format                                   : UTF-8
    Codec ID                                 : S_TEXT/UTF8
    Codec ID/Info                            : UTF-8 Plain Text
    Duration                                 : 43 min 59 s
    Bit rate                                 : 47 b/s
    Frame rate                               : 0.187 FPS
    Count of elements                        : 493
    Stream size                              : 15.3 KiB (0%)
    Language                                 : Hungarian
    Default                                  : No
    Forced                                   : No
    Text #22
    ID                                       : 24
    Format                                   : UTF-8
    Codec ID                                 : S_TEXT/UTF8
    Codec ID/Info                            : UTF-8 Plain Text
    Duration                                 : 43 min 26 s
    Bit rate                                 : 49 b/s
    Frame rate                               : 0.193 FPS
    Count of elements                        : 502
    Stream size                              : 15.8 KiB (0%)
    Language                                 : Indonesian
    Default                                  : No
    Forced                                   : No
    Text #23
    ID                                       : 25
    Format                                   : UTF-8
    Codec ID                                 : S_TEXT/UTF8
    Codec ID/Info                            : UTF-8 Plain Text
    Duration                                 : 43 min 12 s
    Bit rate                                 : 50 b/s
    Frame rate                               : 0.184 FPS
    Count of elements                        : 477
    Stream size                              : 15.9 KiB (0%)
    Language                                 : Italian
    Default                                  : No
    Forced                                   : No
    Text #24
    ID                                       : 26
    Format                                   : UTF-8
    Codec ID                                 : S_TEXT/UTF8
    Codec ID/Info                            : UTF-8 Plain Text
    Duration                                 : 44 min 6 s
    Bit rate                                 : 42 b/s
    Frame rate                               : 0.181 FPS
    Count of elements                        : 479
    Stream size                              : 13.7 KiB (0%)
    Language                                 : Japanese
    Default                                  : No
    Forced                                   : No
    Text #25
    ID                                       : 27
    Format                                   : UTF-8
    Codec ID                                 : S_TEXT/UTF8
    Codec ID/Info                            : UTF-8 Plain Text
    Duration                                 : 43 min 59 s
    Bit rate                                 : 49 b/s
    Frame rate                               : 0.191 FPS
    Count of elements                        : 504
    Stream size                              : 15.9 KiB (0%)
    Language                                 : Korean
    Default                                  : No
    Forced                                   : No
    Text #26
    ID                                       : 28
    Format                                   : UTF-8
    Codec ID                                 : S_TEXT/UTF8
    Codec ID/Info                            : UTF-8 Plain Text
    Duration                                 : 43 min 26 s
    Bit rate                                 : 45 b/s
    Frame rate                               : 0.191 FPS
    Count of elements                        : 498
    Stream size                              : 14.5 KiB (0%)
    Language                                 : Lithuanian
    Default                                  : No
    Forced                                   : No
    Text #27
    ID                                       : 29
    Format                                   : UTF-8
    Codec ID                                 : S_TEXT/UTF8
    Codec ID/Info                            : UTF-8 Plain Text
    Duration                                 : 43 min 26 s
    Bit rate                                 : 48 b/s
    Frame rate                               : 0.191 FPS
    Count of elements                        : 499
    Stream size                              : 15.5 KiB (0%)
    Language                                 : Latvian
    Default                                  : No
    Forced                                   : No
    Text #28
    ID                                       : 30
    Format                                   : UTF-8
    Codec ID                                 : S_TEXT/UTF8
    Codec ID/Info                            : UTF-8 Plain Text
    Duration                                 : 43 min 26 s
    Bit rate                                 : 47 b/s
    Frame rate                               : 0.192 FPS
    Count of elements                        : 501
    Stream size                              : 15.0 KiB (0%)
    Language                                 : Malay
    Default                                  : No
    Forced                                   : No
    Text #29
    ID                                       : 31
    Format                                   : UTF-8
    Codec ID                                 : S_TEXT/UTF8
    Codec ID/Info                            : UTF-8 Plain Text
    Duration                                 : 43 min 59 s
    Bit rate                                 : 44 b/s
    Frame rate                               : 0.144 FPS
    Count of elements                        : 380
    Stream size                              : 14.3 KiB (0%)
    Language                                 : Dutch
    Default                                  : No
    Forced                                   : No
    Text #30
    ID                                       : 32
    Format                                   : UTF-8
    Codec ID                                 : S_TEXT/UTF8
    Codec ID/Info                            : UTF-8 Plain Text
    Duration                                 : 43 min 59 s
    Bit rate                                 : 44 b/s
    Frame rate                               : 0.147 FPS
    Count of elements                        : 389
    Stream size                              : 14.3 KiB (0%)
    Title                                    : Flemish
    Language                                 : Dutch (BE)
    Default                                  : No
    Forced                                   : No
    Text #31
    ID                                       : 33
    Format                                   : UTF-8
    Codec ID                                 : S_TEXT/UTF8
    Codec ID/Info                            : UTF-8 Plain Text
    Duration                                 : 43 min 59 s
    Bit rate                                 : 43 b/s
    Frame rate                               : 0.140 FPS
    Count of elements                        : 370
    Stream size                              : 13.9 KiB (0%)
    Language                                 : Norwegian
    Default                                  : No
    Forced                                   : No
    Text #32
    ID                                       : 34
    Format                                   : UTF-8
    Codec ID                                 : S_TEXT/UTF8
    Codec ID/Info                            : UTF-8 Plain Text
    Duration                                 : 43 min 59 s
    Bit rate                                 : 47 b/s
    Frame rate                               : 0.189 FPS
    Count of elements                        : 498
    Stream size                              : 15.2 KiB (0%)
    Language                                 : Polish
    Default                                  : No
    Forced                                   : No
    Text #33
    ID                                       : 35
    Format                                   : UTF-8
    Codec ID                                 : S_TEXT/UTF8
    Codec ID/Info                            : UTF-8 Plain Text
    Duration                                 : 43 min 59 s
    Bit rate                                 : 48 b/s
    Frame rate                               : 0.188 FPS
    Count of elements                        : 496
    Stream size                              : 15.6 KiB (0%)
    Language                                 : Portuguese
    Default                                  : No
    Forced                                   : No
    Text #34
    ID                                       : 36
    Format                                   : UTF-8
    Codec ID                                 : S_TEXT/UTF8
    Codec ID/Info                            : UTF-8 Plain Text
    Duration                                 : 43 min 59 s
    Bit rate                                 : 43 b/s
    Frame rate                               : 0.177 FPS
    Count of elements                        : 467
    Stream size                              : 14.0 KiB (0%)
    Title                                    : Brazilian
    Language                                 : Portuguese (BR)
    Default                                  : No
    Forced                                   : No
    Text #35
    ID                                       : 37
    Format                                   : UTF-8
    Codec ID                                 : S_TEXT/UTF8
    Codec ID/Info                            : UTF-8 Plain Text
    Duration                                 : 43 min 59 s
    Bit rate                                 : 66 b/s
    Frame rate                               : 0.182 FPS
    Count of elements                        : 480
    Stream size                              : 21.4 KiB (0%)
    Language                                 : Russian
    Default                                  : No
    Forced                                   : No
    Text #36
    ID                                       : 38
    Format                                   : UTF-8
    Codec ID                                 : S_TEXT/UTF8
    Codec ID/Info                            : UTF-8 Plain Text
    Duration                                 : 43 min 59 s
    Bit rate                                 : 43 b/s
    Frame rate                               : 0.191 FPS
    Count of elements                        : 504
    Stream size                              : 13.9 KiB (0%)
    Language                                 : Slovak
    Default                                  : No
    Forced                                   : No
    Text #37
    ID                                       : 39
    Format                                   : UTF-8
    Codec ID                                 : S_TEXT/UTF8
    Codec ID/Info                            : UTF-8 Plain Text
    Duration                                 : 43 min 26 s
    Bit rate                                 : 38 b/s
    Frame rate                               : 0.157 FPS
    Count of elements                        : 409
    Stream size                              : 12.4 KiB (0%)
    Language                                 : Slovenian
    Default                                  : No
    Forced                                   : No
    Text #38
    ID                                       : 40
    Format                                   : UTF-8
    Codec ID                                 : S_TEXT/UTF8
    Codec ID/Info                            : UTF-8 Plain Text
    Duration                                 : 44 min 0 s
    Bit rate                                 : 46 b/s
    Frame rate                               : 0.169 FPS
    Count of elements                        : 445
    Stream size                              : 14.9 KiB (0%)
    Language                                 : Swedish
    Default                                  : No
    Forced                                   : No
    Text #39
    ID                                       : 41
    Format                                   : UTF-8
    Codec ID                                 : S_TEXT/UTF8
    Codec ID/Info                            : UTF-8 Plain Text
    Duration                                 : 43 min 26 s
    Bit rate                                 : 166 b/s
    Frame rate                               : 0.193 FPS
    Count of elements                        : 503
    Stream size                              : 52.8 KiB (0%)
    Language                                 : Tamil
    Default                                  : No
    Forced                                   : No
    Text #40
    ID                                       : 42
    Format                                   : UTF-8
    Codec ID                                 : S_TEXT/UTF8
    Codec ID/Info                            : UTF-8 Plain Text
    Duration                                 : 43 min 26 s
    Bit rate                                 : 141 b/s
    Frame rate                               : 0.193 FPS
    Count of elements                        : 503
    Stream size                              : 45.0 KiB (0%)
    Language                                 : Telugu
    Default                                  : No
    Forced                                   : No
    Text #41
    ID                                       : 43
    Format                                   : UTF-8
    Codec ID                                 : S_TEXT/UTF8
    Codec ID/Info                            : UTF-8 Plain Text
    Duration                                 : 43 min 26 s
    Bit rate                                 : 124 b/s
    Frame rate                               : 0.193 FPS
    Count of elements                        : 503
    Stream size                              : 39.7 KiB (0%)
    Language                                 : Thai
    Default                                  : No
    Forced                                   : No
    Text #42
    ID                                       : 44
    Format                                   : UTF-8
    Codec ID                                 : S_TEXT/UTF8
    Codec ID/Info                            : UTF-8 Plain Text
    Duration                                 : 43 min 26 s
    Bit rate                                 : 47 b/s
    Frame rate                               : 0.191 FPS
    Count of elements                        : 497
    Stream size                              : 15.1 KiB (0%)
    Language                                 : Turkish
    Default                                  : No
    Forced                                   : No
    Text #43
    ID                                       : 45
    Format                                   : UTF-8
    Codec ID                                 : S_TEXT/UTF8
    Codec ID/Info                            : UTF-8 Plain Text
    Duration                                 : 43 min 59 s
    Bit rate                                 : 72 b/s
    Frame rate                               : 0.191 FPS
    Count of elements                        : 504
    Stream size                              : 23.2 KiB (0%)
    Language                                 : Ukrainian
    Default                                  : No
    Forced                                   : No
    Text #44
    ID                                       : 46
    Format                                   : UTF-8
    Codec ID                                 : S_TEXT/UTF8
    Codec ID/Info                            : UTF-8 Plain Text
    Duration                                 : 43 min 59 s
    Bit rate                                 : 64 b/s
    Frame rate                               : 0.191 FPS
    Count of elements                        : 504
    Stream size                              : 20.6 KiB (0%)
    Language                                 : Vietnamese
    Default                                  : No
    Forced                                   : No
    Text #45
    ID                                       : 47
    Format                                   : UTF-8
    Codec ID                                 : S_TEXT/UTF8
    Codec ID/Info                            : UTF-8 Plain Text
    Duration                                 : 43 min 59 s
    Bit rate                                 : 40 b/s
    Frame rate                               : 0.191 FPS
    Count of elements                        : 504
    Stream size                              : 13.0 KiB (0%)
    Title                                    : Traditional
    Language                                 : Cantonese (Hant)
    Default                                  : No
    Forced                                   : No
    Menu
    00:00:00.000                             : en:Studio Logo
    00:00:08.963                             : en:Main
    00:42:41.666                             : en:Credits

    【 SCREENSHOT 】
    [​IMG]
    [​IMG]
    [​IMG]

    [​IMG]
    Download:
    Nhấn nút Cảm ơn (dưới chân bài) để thấy link!

    Tổng hợp phim Bom tấn:
    Nhấn nút Cảm ơn (dưới chân bài) để thấy link!


    ***TỔNG HỢP PHIM/NHẠC/SÁCH***
    Nhấn nút Cảm ơn (dưới chân bài) để thấy link!


    DANH SÁCH PHIM MỚI CẬP NHẬT LIÊN TỤC:
    Nhấn nút Cảm ơn (dưới chân bài) để thấy link!


    [​IMG]
    Download:
    Nhấn nút Cảm ơn (dưới chân bài) để thấy link!

    Tổng hợp phim Bom tấn:
    Nhấn nút Cảm ơn (dưới chân bài) để thấy link!


    ***TỔNG HỢP PHIM/NHẠC/SÁCH***
    Nhấn nút Cảm ơn (dưới chân bài) để thấy link!
     
    Chỉnh sửa cuối: 6/2/24

Chia sẻ trang này