Ghé Bến Sài Gòn - Trish Thùy Trang [1080i.Bluray.AC3]

Thảo luận trong 'Link Phim - Nhạc chờ phục hồi' bắt đầu bởi NhuQuynhCF, 24/7/11.

Trạng thái chủ đề:
Không mở trả lời sau này.
  1. NhuQuynhCF

    NhuQuynhCF New Member

    Tham gia ngày:
    21/10/09
    Bài viết:
    2,109
    Đã được cảm ơn:
    863
    Nơi ở:
    ♥♡♥♡♥♡♥♡ Trái Tim ♡♥♡♥♡♥♡♥
    Ghé Bến Sài Gòn - Trish Thùy Trang

    (Trích từ Asia 68 Bluray)


    [​IMG]

    Format : BDAV
    Format/Info : Blu-ray Video
    File size : 630 MiB

    Duration : 3mn 37s

    Overall bit rate : 24.3 Mbps
    Maximum Overall bit rate : 48.0 Mbps

    Video
    ID : 4113 (0x1011)
    Menu ID : 1 (0x1)
    Format : MPEG Video
    Format version : Version 2
    Format profile : Main@High
    Format settings, BVOP : Yes
    Format settings, Matrix : Default
    Format_Settings_GOP : M=3, N=15
    Duration : 3mn 37s
    Bit rate mode : Variable
    Bit rate : 22.0 Mbps
    Nominal bit rate : 35.0 Mbps
    Width : 1 920 pixels
    Height : 1 080 pixels
    Display aspect ratio : 16:9
    Frame rate : 29.970 fps
    Resolution : 8 bits
    Colorimetry : 4:2:0
    Scan type : Interlaced
    Scan order : Top Field First
    Bits/(Pixel*Frame) : 0.355
    Stream size : 571 MiB (91%)

    Audio #1
    ID : 4352 (0x1100)
    Menu ID : 1 (0x1)
    Format : AC-3
    Format/Info : Audio Coding 3
    Duration : 3mn 37s
    Bit rate mode : Constant
    Bit rate : 640 Kbps
    Channel(s) : 2 channels
    Channel positions : Front: L R
    Sampling rate : 48.0 KHz
    Video delay : -89ms
    Stream size : 16.6 MiB (3%)

    Audio #2
    ID : 4353 (0x1101)
    Menu ID : 1 (0x1)
    Format : AC-3
    Format/Info : Audio Coding 3
    Duration : 3mn 37s
    Bit rate mode : Constant
    Bit rate : 640 Kbps
    Channel(s) : 6 channels
    Channel positions : Front: L C R, Side: L R, LFE
    Sampling rate : 48.0 KHz
    Video delay : -89ms
    Stream size : 16.6 MiB (3%)

    Link tải phim
    Nhấn nút Cảm ơn (dưới chân bài) để thấy link!
     
    Toulon cảm ơn bài này.
  2. hoang_85

    hoang_85 Member

    Tham gia ngày:
    30/7/10
    Bài viết:
    27
    Đã được cảm ơn:
    3
    Giới tính:
    Nam
    Nghề nghiệp:
    Kỹ thuật Viên CNTT
    Nơi ở:
    Việt Nam
    Ðề: Ghé Bến Sài Gòn - Trish Thùy Trang [1080i.Bluray.AC3]

    Trish Thùy Trang mình hâm mộ nhất bài Tomorrow will come thamk NQC!
     
  3. oliverking

    oliverking New Member

    Tham gia ngày:
    7/2/12
    Bài viết:
    1
    Đã được cảm ơn:
    0
    Ðề: Ghé Bến Sài Gòn - Trish Thùy Trang [1080i.Bluray.AC3]

    thank you very much
     
Trạng thái chủ đề:
Không mở trả lời sau này.

Chia sẻ trang này