[FShare] Xuân Hinh Kén Chồng 2012 [ DVD ISO ]

Thảo luận trong 'mHD, SD' bắt đầu bởi vanhuu_nvh, 29/12/11.

  1. vanhuu_nvh

    vanhuu_nvh New Member

    Tham gia ngày:
    15/6/10
    Bài viết:
    38
    Đã được cảm ơn:
    66
    Xuân Hinh Kén Chồng 2012 [ DVD ISO ]

    Xuân Hinh Kén Chồng 2012

    VCDXuanHinh2012Custo.jpg


    Code:
    General
    Complete name : C:\Download\Xuan hinh ken chong - dvd\xuan hinh 2011\VIDEO_TS\VTS_01_1.VOB
    Format : MPEG-PS
    File size : 1 024 MiB
    Duration : 18mn 39s
    Overall bit rate : 7 672 Kbps

    Video
    ID : 224 (0xE0)
    Format : MPEG Video
    Format version : Version 2
    Format profile : Main@Main
    Format settings, BVOP : Yes
    Format settings, Matrix : Default
    Duration : 18mn 39s
    Bit rate mode : Variable
    Bit rate : 5 983 Kbps
    Nominal bit rate : 8 000 Kbps
    Width : 720 pixels
    Height : 576 pixels
    Display aspect ratio : 4:3
    Frame rate : 25.000 fps
    Standard : PAL
    Color space : YUV
    Chroma subsampling : 4:2:0
    Bit depth : 8 bits
    Scan type : Interlaced
    Scan order : Top Field First
    Compression mode : Lossy
    Bits/(Pixel*Frame) : 0.577
    Stream size : 798 MiB (78%)

    Audio
    ID : 189 (0xBD)-160 (0xA0)
    Format : PCM
    Format settings, Endianness : Big
    Format settings, Sign : Signed
    Muxing mode : DVD-Video
    Duration : 18mn 39s
    Bit rate mode : Constant
    Bit rate : 1 536 Kbps
    Channel(s) : 2 channels
    Channel positions : Front: L R
    Sampling rate : 48.0 KHz
    Bit depth : 16 bits
    Stream size : 205 MiB (20%)



    Code:

    Nhấn nút Cảm ơn (dưới chân bài) để thấy link!
     
    Chỉnh sửa cuối: 29/12/11
  2. htinfo

    htinfo New Member

    Tham gia ngày:
    20/3/10
    Bài viết:
    3,777
    Đã được cảm ơn:
    75
    Nghề nghiệp:
    Sinh viên
    Nơi ở:
    The Faculty of Ice Tea, HCMC US
    Ðề: [FShare] Xuân Hinh Kén Chồng 2012 [ DVD ISO ]

    nhầm box, Box non-HD!
     
  3. 123namthuy

    123namthuy Member

    Tham gia ngày:
    22/2/10
    Bài viết:
    139
    Đã được cảm ơn:
    1
    Ðề: [FShare] Xuân Hinh Kén Chồng 2012 [ DVD ISO ]

    sao bác ko up cả file iso lên mà up lẻ thế kia.
     
  4. lovegameisme

    lovegameisme Member

    Tham gia ngày:
    12/3/11
    Bài viết:
    35
    Đã được cảm ơn:
    0
    Ðề: [FShare] Xuân Hinh Kén Chồng 2012 [ DVD ISO ]

    dày nhỉ,ts gần 4Gb
     
  5. hoangbiu10

    hoangbiu10 Member

    Tham gia ngày:
    27/5/10
    Bài viết:
    385
    Đã được cảm ơn:
    11
    Ðề: [FShare] Xuân Hinh Kén Chồng 2012 [ DVD ISO ]

    down về xong xem kiểu gì vậy các bác??
     
  6. vanhuu_nvh

    vanhuu_nvh New Member

    Tham gia ngày:
    15/6/10
    Bài viết:
    38
    Đã được cảm ơn:
    66
    Ðề: [FShare] Xuân Hinh Kén Chồng 2012 [ DVD ISO ]

    Mình làm vậy cho bạn nào k dùng iso vẫn có thể xem trực tiếp = file .VBO còn bạn nào cần in ra đĩa thì dung Ultraliso : "add to Xuanhinh2012.iso" là sẽ có file iso ngon lành burn ra đĩa mà ^^
     
  7. twingirl

    twingirl Well-Known Member

    Tham gia ngày:
    5/4/11
    Bài viết:
    4,226
    Đã được cảm ơn:
    131
    Ðề: [FShare] Xuân Hinh Kén Chồng 2012 [ DVD ISO ]

    Thank for sharing..............
     
  8. lanem

    lanem Member

    Tham gia ngày:
    9/2/10
    Bài viết:
    637
    Đã được cảm ơn:
    19
    Nơi ở:
    Hà Nội
    Ðề: [FShare] Xuân Hinh Kén Chồng 2012 [ DVD ISO ]

    nhanh quá
    thanks bác nhiều \:D/
     
  9. hoai_trangoc

    hoai_trangoc Active Member

    Tham gia ngày:
    11/3/10
    Bài viết:
    498
    Đã được cảm ơn:
    33
    Ðề: [FShare] Xuân Hinh Kén Chồng 2012 [ DVD ISO ]

    Thank bác.nhưng mà cái trào lưu giả gái em cứ thấy nó tởm tởm thế nào ý. hết hoài linh lại xuân hinh. không biết còn ông vần Inh nào làm tý giả gái nữa không.
     
  10. tigonmanager

    tigonmanager Member

    Tham gia ngày:
    13/12/11
    Bài viết:
    63
    Đã được cảm ơn:
    12
    Ðề: [FShare] Xuân Hinh Kén Chồng 2012 [ DVD ISO ]

    Thank bac nhieu ! lan sau bac nen compress dvd thanh file .iso roi upload cho gon nhe bac a !
     
  11. vanhuu_nvh

    vanhuu_nvh New Member

    Tham gia ngày:
    15/6/10
    Bài viết:
    38
    Đã được cảm ơn:
    66
    Ðề: [FShare] Xuân Hinh Kén Chồng 2012 [ DVD ISO ]

    Mình đã có nói ở trên là dành cho anh em nào k thích Iso mà xem trực tiếp rồi mà ^^
     
  12. NCMINHHD

    NCMINHHD Well-Known Member

    Tham gia ngày:
    1/2/10
    Bài viết:
    811
    Đã được cảm ơn:
    1,059
    Ðề: [FShare] Xuân Hinh Kén Chồng 2012 [ DVD ISO ]

    Up kiểu này cũng hay đấy nếu ai muốn burn DVD thì rất tiện, còn xem bằng box HD player thì không tiện lắm . Thanks !
     
  13. hoangconghieu

    hoangconghieu Well-Known Member

    Tham gia ngày:
    16/2/09
    Bài viết:
    969
    Đã được cảm ơn:
    416
  14. vanhuu_nvh

    vanhuu_nvh New Member

    Tham gia ngày:
    15/6/10
    Bài viết:
    38
    Đã được cảm ơn:
    66
    Ðề: [FShare] Xuân Hinh Kén Chồng 2012 [ DVD ISO ]

    do ngẫu nhiên thôi bác ạ, chứ em cũng k biết chuyện đó ^^
     

Chia sẻ trang này