|Fshare|Shrek 3D Quadrilogy.1080p

Thảo luận trong '3D' bắt đầu bởi trinhquocvinh82, 27/7/12.

  1. trinhquocvinh82

    trinhquocvinh82 Well-Known Member

    Tham gia ngày:
    3/9/09
    Bài viết:
    1,739
    Đã được cảm ơn:
    1,664
    01. Shrek 3D.1080p.halfSBS.sub: Vie
    [​IMG]
    Mã:
    Shrek 1 3D Half-SBS.mkv
       General
    
    
    	

    Unique ID : 182806839988166237479968121737444802874 (0x8987511460E6A9A9B3226EA617F7413A)

    Complete name : Shrek 1 3D Half-SBS.mkv Format : Matroska Format version : Version 2 File size : 6.78 GiB Duration : 1h 30mn Overall bit rate : 10.8 Mbps Encoded date : UTC 2010-11-02 19:03:43 Writing application : mkvmerge v4.3.0 ('Escape from the Island') built on Sep 5 2010 10:30:51 Writing library : libebml v1.0.0 + libmatroska v1.0.0 Video #1 ID : 1 Format : AVC Format/Info : Advanced Video Codec Format profile : [email protected] MultiView_Count : 2 MultiView_Layout : Both Eye Format settings, CABAC : Yes Format settings, ReFrames : 4 frames Codec ID : V_MPEG4/ISO/AVC Duration : 1h 30mn Bit rate : 9 289 Kbps Nominal bit rate : 10 000 Kbps Width : 1 920 pixels Height : 1 080 pixels Display aspect ratio : 16:9 Frame rate mode : Variable Frame rate : 23.976 fps Color space : YUV Chroma subsampling : 4:2:0 Bit depth : 8 bits Scan type : Progressive Bits/(Pixel*Frame) : 0.187 Stream size : 5.84 GiB (86%) Writing library : x264 core 107 r1745 4785e8e Language : English Default : Yes Forced : No Audio #2 ID : 2 Format : AC-3 Format/Info : Audio Coding 3 Mode extension : CM (complete main) Format settings, Endianness : Big Codec ID : A_AC3 Duration : 1h 30mn Bit rate mode : Constant Bit rate : 640 Kbps Channel(s) : 6 channels Channel positions : Front: L C R, Side: L R, LFE Sampling rate : 48.0 KHz Bit depth : 16 bits Compression mode : Lossy Stream size : 412 MiB (6%) Language : English Default : Yes Forced : No Audio #3 ID : 3 Format : AC-3 Format/Info : Audio Coding 3 Mode extension : CM (complete main) Format settings, Endianness : Big Codec ID : A_AC3 Duration : 1h 30mn Bit rate mode : Constant Bit rate : 640 Kbps Channel(s) : 6 channels Channel positions : Front: L C R, Side: L R, LFE Sampling rate : 48.0 KHz Bit depth : 16 bits Compression mode : Lossy Stream size : 412 MiB (6%) Language : Dutch Default : No Forced : No
    Link tải phim


    02. Shrek 2 3D.1080p.halfSBS.sub: Vie
    [​IMG]
    Mã:
       General
          Unique ID : 237836885938012140083616505356825135946 (0xB2EDB7D22D1574C4B9060C64EC9C0B4A)
          Complete name :Shrek 2 3D Half-SBS.mkv
          Format : Matroska
          Format version : Version 2
          File size : 7.17 GiB
          Duration : 1h 32mn
          Overall bit rate : 11.1 Mbps
          Encoded date : UTC 2010-11-01 23:06:42
          Writing application : mkvmerge v4.3.0 ('Escape from the Island') built on Sep  5 2010 10:30:51
          Writing library : libebml v1.0.0 + libmatroska v1.0.0
       Video #1
          ID : 1
          Format : AVC
          Format/Info : Advanced Video Codec
          Format profile : [email protected]
          MultiView_Count : 2
          MultiView_Layout : Both Eye
          Format settings, CABAC : No
          Format settings, ReFrames : 1 frame
          Format settings, GOP : M=1, N=12
          Codec ID : V_MPEG4/ISO/AVC
          Duration : 1h 32mn
          Bit rate : 10 000 Kbps
          Width : 1 920 pixels
          Height : 1 080 pixels
          Display aspect ratio : 16:9
          Frame rate : 23.976 fps
          Color space : YUV
          Chroma subsampling : 4:2:0
          Bit depth : 8 bits
          Scan type : Progressive
          Bits/(Pixel*Frame) : 0.201
          Stream size : 6.20 GiB (86%)
          Writing library : x264 core 67 r1127 8d82fec
          Language : English
          Default : Yes
          Forced : No
       Audio #2
          ID : 2
          Format : AC-3
          Format/Info : Audio Coding 3
          Mode extension : CM (complete main)
          Format settings, Endianness : Big
          Codec ID : A_AC3
          Duration : 1h 32mn
          Bit rate mode : Constant
          Bit rate : 640 Kbps
          Channel(s) : 6 channels
          Channel positions : Front: L C R, Side: L R, LFE
          Sampling rate : 48.0 KHz
          Bit depth : 16 bits
          Compression mode : Lossy
          Stream size : 423 MiB (6%)
          Language : English
          Default : Yes
          Forced : No
       Audio #3
          ID : 3
          Format : AC-3
          Format/Info : Audio Coding 3
          Mode extension : CM (complete main)
          Format settings, Endianness : Big
          Codec ID : A_AC3
          Duration : 1h 32mn
          Bit rate mode : Constant
          Bit rate : 640 Kbps
          Channel(s) : 6 channels
          Channel positions : Front: L C R, Side: L R, LFE
          Sampling rate : 48.0 KHz
          Bit depth : 16 bits
          Compression mode : Lossy
          Stream size : 423 MiB (6%)
          Language : Dutch
          Default : No
          Forced : No
    Link tải phim


    03. Shrek 3 3D.1080p.halfSBS.Thuyết Minh
    [​IMG]
    Mã:
       General
          Unique ID : 226639379001691206876292630625803292004 (0xAA81281AD918BAF7BACF2F841F57CD64)
          Complete name :Shrek 3 3D Half-SBS.1080p.mkv
          Format : Matroska
          Format version : Version 2
          File size : 28.2 GiB
          Duration : 1h 32mn
          Overall bit rate mode : Variable
          Overall bit rate : 43.5 Mbps
          Encoded date : UTC 2010-11-21 12:24:23
          Writing application : mkvmerge v4.0.0 ('The Stars were mine') built on Jun  6 2010 16:18:42
          Writing library : libebml v1.0.0 + libmatroska v1.0.0
          Attachment : Yes / Yes / Yes
       Video #1
          ID : 1
          Format : AVC
          Format/Info : Advanced Video Codec
          Format profile : [email protected]
          Format settings, CABAC : No
          Format settings, ReFrames : 1 frame
          Format settings, GOP : M=1, N=12
          Codec ID : V_MPEG4/ISO/AVC
          Duration : 1h 32mn
          Nominal bit rate : 40.0 Mbps
          Width : 1 920 pixels
          Height : 1 080 pixels
          Display aspect ratio : 16:9
          Frame rate : 23.976 fps
          Color space : YUV
          Chroma subsampling : 4:2:0
          Bit depth : 8 bits
          Scan type : Progressive
          Bits/(Pixel*Frame) : 0.805
          Writing library : x264 core 67 r1127 8d82fec
          Language : English
          Default : No
          Forced : No
       Audio #2
          ID : 2
          Format : DTS
          Format/Info : Digital Theater Systems
          Codec ID : A_DTS
          Duration : 1h 32mn
          Bit rate mode : Constant
          Bit rate : 1 510 Kbps
          Channel(s) : 6 channels
          Channel positions : Front: L C R, Side: L R, LFE
          Sampling rate : 48.0 KHz
          Bit depth : 24 bits
          Compression mode : Lossy
          Delay relative to video : 24ms
          Stream size : 1 002 MiB (3%)
          Language : Vietnamese
          Default : Yes
          Forced : No
       Audio #3
          ID : 3
          Format : AC-3
          Format/Info : Audio Coding 3
          Mode extension : CM (complete main)
          Format settings, Endianness : Big
          Codec ID : A_AC3
          Duration : 1h 32mn
          Bit rate mode : Constant
          Bit rate : 640 Kbps
          Channel(s) : 6 channels
          Channel positions : Front: L C R, Side: L R, LFE
          Sampling rate : 48.0 KHz
          Bit depth : 16 bits
          Compression mode : Lossy
          Stream size : 425 MiB (1%)
          Language : English
          Default : No
          Forced : No
       Audio #4
          ID : 4
          Format : TrueHD
          Codec ID : A_TRUEHD
          Duration : 1h 32mn
          Bit rate mode : Variable
          Maximum bit rate : 4 839 Kbps
          Channel(s) : 8 channels
          Channel positions : Front: L C R, Side: L R, Back: L R, LFE
          Sampling rate : 48.0 KHz
          Compression mode : Lossless
          Language : English
          Default : No
          Forced : No
    Link tải phim


    04. Shrek 4 3D.1080p.halfSBS.Thuyết Minh
    [​IMG]
    Mã:
       General
          Unique ID : 230486634006474470781138123552162822007 (0xAD661C6BE6290D4FA72086E7FD9BB777)
          Complete name : Shrek4_thuyetminh.3D.mkv
          Format : Matroska
          Format version : Version 2
          File size : 4.41 GiB
          Duration : 1h 33mn
          Overall bit rate : 6 767 Kbps
          Encoded date : UTC 2010-12-18 13:26:44
          Writing application : mkvmerge v2.9.8 ('C'est le bon') built on Aug 13 2009 12:49:06
          Writing library : libebml v0.7.7 + libmatroska v0.8.1
       Video #1
          ID : 1
          Format : AVC
          Format/Info : Advanced Video Codec
          Format profile : [email protected]
          Format settings, CABAC : Yes
          Format settings, ReFrames : 4 frames
          Codec ID : V_MPEG4/ISO/AVC
          Duration : 1h 33mn
          Bit rate : 6 313 Kbps
          Width : 1 920 pixels
          Height : 1 080 pixels
          Display aspect ratio : 16:9
          Frame rate : 23.976 fps
          Color space : YUV
          Chroma subsampling : 4:2:0
          Bit depth : 8 bits
          Scan type : Progressive
          Bits/(Pixel*Frame) : 0.127
          Stream size : 4.11 GiB (93%)
          Title : made by z-man
          Writing library : x264 core 110 r1820 fdcf2ae
          Language : English
          Default : No
          Forced : No
       Audio #2
          ID : 2
          Format : MPEG Audio
          Format version : Version 1
          Format profile : Layer 3
          Codec ID : A_MPEG/L3
          Codec ID/Hint : MP3
          Duration : 1h 33mn
          Bit rate mode : Constant
          Bit rate : 320 Kbps
          Channel(s) : 2 channels
          Sampling rate : 48.0 KHz
          Compression mode : Lossy
          Stream size : 213 MiB (5%)
          Default : Yes
          Forced : No
     
  2. haquanglong85

    haquanglong85 New Member

    Tham gia ngày:
    3/6/12
    Bài viết:
    118
    Đã được cảm ơn:
    5
    Ðề: |Fshare|Shrek 3D Quadrilogy.1080p

    Mở hàng cho đê.....
     
  3. nklinh1966

    nklinh1966 Active Member

    Tham gia ngày:
    21/3/11
    Bài viết:
    298
    Đã được cảm ơn:
    22
    Giới tính:
    Nam
    Ðề: |Fshare|Shrek 3D Quadrilogy.1080p

    Ban suu tam bo Shrek cung hay day nhi. Thanks for sharing. Nhung sao Shrek 3 dung luong file tang vot vay chu thot ?
     
  4. tanthienbaotoan

    tanthienbaotoan New Member

    Tham gia ngày:
    19/7/12
    Bài viết:
    80
    Đã được cảm ơn:
    1
    Mới down thử Shrek 4 xem ko có hình ảnh nổi ji cả?giống như xem HD chuyển wa 3D cho hình ảnh sâu vào zậy,ko thấy hình ảnh nổi.Ko biết mấy tập kia như thế nào?Đã xem 3D thì nên xem hình ảnh nổi mới ra 3D,hình ảnh sâu vào chẳng khác ji xem kênh HD rồi chỉnh sang 3D cũng giống như zậy.
     
  5. trinhquocvinh82

    trinhquocvinh82 Well-Known Member

    Tham gia ngày:
    3/9/09
    Bài viết:
    1,739
    Đã được cảm ơn:
    1,664
    Ðề: Re: |Fshare|Shrek 3D Quadrilogy.1080p

    Mình vừa test lại bằng LG42LW5700 hình sâu và nét. nếu chuyển từ HD sang làm gì mà sâu như thế được.
     
  6. atnxh

    atnxh Member

    Tham gia ngày:
    2/7/12
    Bài viết:
    80
    Đã được cảm ơn:
    3
    Bác chủ úp lại giúp với, đang cần bộ này mà link die rồi
    thanks
     

Chia sẻ trang này