[Fshare] [Phim Việt Nam] Chơi Vơi (2009) [DVD5]

Thảo luận trong 'mHD, SD' bắt đầu bởi tuannm0508, 21/5/12.

  1. tuannm0508

    tuannm0508 Well-Known Member

    Tham gia ngày:
    25/8/10
    Bài viết:
    1,957
    Đã được cảm ơn:
    44,119
    [​IMG]

    Mã:
    Format                           : MPEG-PS
    File size                        : 977 MiB
    Duration                         : 24mn 5s
    Overall bit rate                 : 5 669 Kbps
    Writing library                  : encoded by TMPGEnc 4.0 XPress Version. 4.7.6.304
    
    Video
    ID                               : 224 (0xE0)
    Format                           : MPEG Video
    Format version                   : Version 2
    Format profile                   : Main@Main
    Format settings, BVOP            : Yes
    Format settings, Matrix          : Custom
    Format settings, GOP             : M=3, N=18
    Duration                         : 24mn 5s
    Bit rate                         : 5 429 Kbps
    Maximum bit rate                 : 5 444 Kbps
    Width                            : 720 pixels
    Height                           : 576 pixels
    Display aspect ratio             : 4:3
    Frame rate                       : 25.000 fps
    Standard                         : PAL
    Color space                      : YUV
    Chroma subsampling               : 4:2:0
    Bit depth                        : 8 bits
    Scan type                        : Interlaced
    Scan order                       : Top Field First
    Compression mode                 : Lossy
    Bits/(Pixel*Frame)               : 0.524
    Stream size                      : 935 MiB (96%)
    Writing library                  : TMPGEnc XPress 4.7.6.304
    Color primaries                  : BT.470-2 System B, BT.470-2 System G
    Transfer characteristics         : BT.470-2 System B, BT.470-2 System G
    Matrix coefficients              : BT.470-2 System B, BT.470-2 System G
    
    Audio
    ID                               : 192 (0xC0)
    Format                           : MPEG Audio
    Format version                   : Version 1
    Format profile                   : Layer 2
    Duration                         : 24mn 4s
    Bit rate mode                    : Constant
    Bit rate                         : 128 Kbps
    Channel(s)                       : 2 channels
    Sampling rate                    : 48.0 KHz
    Compression mode                 : Lossy
    Stream size                      : 22.0 MiB (2%)
    
    Mã:
    [url=http://www.fshare.vn/folder/TQGBV37ZHT][fsLink.us] Choi Voi (2009) DVD5 --[/url]
     
    rongcanlc, nhaque15 and cuongdigital like this.
  2. sbsaobangsb

    sbsaobangsb Well-Known Member

    Tham gia ngày:
    13/8/08
    Bài viết:
    1,468
    Đã được cảm ơn:
    196
    Ðề: [Fshare] [Phim Việt Nam] Chơi Vơi (2009) [DVD5]

    sao không chuyển thành link mkv đó bạn dễ xem hơn
     
  3. Phê Phim

    Phê Phim Huyền Thoại

    Tham gia ngày:
    1/2/10
    Bài viết:
    3,154
    Đã được cảm ơn:
    46,584
    Ðề: [Fshare] [Phim Việt Nam] Chơi Vơi (2009) [DVD5]

    thank bạn, múc ngay thôi, hot hot
     
  4. boydatinh90

    boydatinh90 New Member

    Tham gia ngày:
    14/4/10
    Bài viết:
    2
    Đã được cảm ơn:
    0
    Ðề: [Fshare] [Phim Việt Nam] Chơi Vơi (2009) [DVD5]

    hjc! Ko down được! Có bác nào có link duy nhất ko??
     
  5. ANHTUANXP

    ANHTUANXP Active Member

    Tham gia ngày:
    13/2/12
    Bài viết:
    300
    Đã được cảm ơn:
    122
    Ðề: [Fshare] [Phim Việt Nam] Chơi Vơi (2009) [DVD5]

    Không có HD hả bác?
     

Chia sẻ trang này