[fshare]( Music Live ) Take That - Ultimate 2008 Blu-ray 1080i MPG DTS-HDMA5.1 (Bonus Video)

Thảo luận trong 'Bluray nguyên gốc' bắt đầu bởi laptrinhtinhyeu305, 9/7/13.

  1. laptrinhtinhyeu305

    laptrinhtinhyeu305 Well-Known Member

    Tham gia ngày:
    3/3/12
    Bài viết:
    1,176
    Đã được cảm ơn:
    1,016
    Giới tính:
    Nam
    Nghề nghiệp:
    Tự Do
    Nơi ở:
    HCMC
    [ Music Live ] Take That - Ultimate 2008 Blu-ray 1080i MPG DTS-HDMA5.1 (Bonus Video)

    Bonus Video
    đây là một trong những đoạn bonus đặc sắc nhất của Take That - Ultimate 2008 Blu-ray thiệt sự ko có chỗ nào để chê cả chỉ có một câu thôi quá tuyệt !



    [​IMG]


    [​IMG]

    Mã:
    Complete name                            : D:flim-videoMusic Video�0029.m2ts
    Format                                   : BDAV
    Format/Info                              : Blu-ray Video
    File size                                : 2.94 GiB
    Duration                                 : 19mn 2s
    Overall bit rate mode                    : Variable
    Overall bit rate                         : 22.1 Mbps
    Maximum Overall bit rate                 : 48.0 Mbps
    
    
    Video
    
    
    ID                                       : 4113 (0x1011)
    
    
    Menu ID                                  : 1 (0x1)
    Format                                   : AVC
    Format/Info                              : Advanced Video Codec
    Format profile                           : [email protected]
    Format settings, CABAC                   : Yes
    Format settings, ReFrames                : 4 frames
    Codec ID                                 : 27
    Duration                                 : 19mn 2s
    Bit rate mode                            : Variable
    Bit rate                                 : 17.1 Mbps
    Maximum bit rate                         : 22.0 Mbps
    Width                                    : 1 920 pixels
    Height                                   : 1 080 pixels
    Display aspect ratio                     : 16:9
    Frame rate                               : 29.970 fps
    Standard                                 : NTSC
    Color space                              : YUV
    Chroma subsampling                       : 4:2:0
    Bit depth                                : 8 bits
    Scan type                                : MBAFF
    Bits/(Pixel*Frame)                       : 0.275
    Stream size                              : 2.28 GiB (78%)
    Color primaries                          : BT.709
    Transfer characteristics                 : BT.709
    Matrix coefficients                      : BT.709
    Audio #1
    ID                                       : 4352 (0x1100)
    Menu ID                                  : 1 (0x1)
    Format                                   : PCM
    Format settings, Endianness              : Big
    Format settings, Sign                    : Signed
    Muxing mode                              : Blu-ray
    Codec ID                                 : 128
    Duration                                 : 19mn 2s
    Bit rate mode                            : Constant
    Bit rate                                 : 1 536 Kbps
    Channel(s)                               : 2 channels
    Channel positions                        : Front: L R
    Sampling rate                            : 48.0 KHz
    Bit depth                                : 16 bits
    Stream size                              : 209 MiB (7%)
    Audio #2
    ID                                       : 4353 (0x1101)
    Menu ID                                  : 1 (0x1)
    Format                                   : DTS
    Format/Info                              : Digital Theater Systems
    Format profile                           : MA / Core
    Muxing mode                              : Stream extension
    Codec ID                                 : 134
    Duration                                 : 19mn 2s
    Bit rate mode                            : Variable
    Bit rate                                 : 2 541 Kbps / 960 Kbps
    Channel(s)                               : 6 channels
    Channel positions                        : Front: L C R, Side: L R, LFE
    Sampling rate                            : 48.0 KHz
    Bit depth                                : 16 bits
    Compression mode                         : Lossless / Lossy
    [​IMG]

    [​IMG]

    [​IMG]

    [​IMG]

    [​IMG]

    [​IMG]

    Nhấn nút Cảm ơn (dưới chân bài) để thấy link!

    Nhấn nút Cảm ơn (dưới chân bài) để thấy link!

    Nhấn nút Cảm ơn (dưới chân bài) để thấy link!

    Nhấn nút Cảm ơn (dưới chân bài) để thấy link!


    ----------------------------------------------------------------------------------------------------------------
    Celine Dion
    Celine Dion - Live In Las Vegas 2007 & Through the Eyes of the World 2010 (1080p/720p BDRip DTS x264)

    http://www.hdvietnam.com/diendan/33-fshare-vn/631339-fshare-music-1link-celine-dion-live.html

    westlife

    http://www.hdvietnam.com/diendan/33-fshare-vn/642969-music-1link-westlife-farewell-tour-live.html

    http://www.hdvietnam.com/diendan/33-fshare-vn/602487-music-1link-westlife-where-we-tour.html

    http://www.hdvietnam.com/diendan/189-us-eu/588351-fshare-westlife-what-about-now-blu.html

    boyzone

    http://www.hdvietnam.com/diendan/33-fshare-vn/590707-music-1-link-boyzone-back-again.html

    bon jovi (bonus)

    http://www.hdvietnam.com/diendan/189-us-eu/604771-fshare-live-bon-jovi-bed-roses.html

    http://www.hdvietnam.com/diendan/189-us-eu/604769-fshare-live-bon-jovi-runaway-bonus.html

    http://www.hdvietnam.com/diendan/189-us-eu/604757-fshare-live-bon-jovi-you-give.html
     
    Chỉnh sửa cuối: 3/8/13
    streamingOnline, huutan5, t3u and 7 others like this.
  2. vkc

    vkc Well-Known Member

    Tham gia ngày:
    20/12/08
    Bài viết:
    1,010
    Đã được cảm ơn:
    3,099
    Giới tính:
    Nam
    Nơi ở:
    Saigon
    Quy định là chỉ tạo thread mới khi đã có đủ links. Do bác mới nên mình du di cho bác 1h (đến 3:00pm) nếu chưa có links mình xóa bài nhé.
     
    huutan5 cảm ơn bài này.
  3. laptrinhtinhyeu305

    laptrinhtinhyeu305 Well-Known Member

    Tham gia ngày:
    3/3/12
    Bài viết:
    1,176
    Đã được cảm ơn:
    1,016
    Giới tính:
    Nam
    Nghề nghiệp:
    Tự Do
    Nơi ở:
    HCMC
    Ðề: Re: [fshare]( Music Live ) Take That - Ultimate 2008 Blu-ray 1080i MPG DTS-HDMA5.1 (Bonus Video)

    bonus video Complete !
     
    Chỉnh sửa cuối: 9/7/13
    huutan5 cảm ơn bài này.
  4. laptrinhtinhyeu305

    laptrinhtinhyeu305 Well-Known Member

    Tham gia ngày:
    3/3/12
    Bài viết:
    1,176
    Đã được cảm ơn:
    1,016
    Giới tính:
    Nam
    Nghề nghiệp:
    Tự Do
    Nơi ở:
    HCMC
    huutan5 cảm ơn bài này.
  5. laptrinhtinhyeu305

    laptrinhtinhyeu305 Well-Known Member

    Tham gia ngày:
    3/3/12
    Bài viết:
    1,176
    Đã được cảm ơn:
    1,016
    Giới tính:
    Nam
    Nghề nghiệp:
    Tự Do
    Nơi ở:
    HCMC
    huutan5 cảm ơn bài này.
  6. laptrinhtinhyeu305

    laptrinhtinhyeu305 Well-Known Member

    Tham gia ngày:
    3/3/12
    Bài viết:
    1,176
    Đã được cảm ơn:
    1,016
    Giới tính:
    Nam
    Nghề nghiệp:
    Tự Do
    Nơi ở:
    HCMC
    huutan5 cảm ơn bài này.

Chia sẻ trang này