[Fshare] Hài Xuân (2012) - Phước Lộc Lọ [ DVD ISO ]

Thảo luận trong 'mHD, SD' bắt đầu bởi tuannm0508, 27/12/11.

  1. tuannm0508

    tuannm0508 Well-Known Member

    Tham gia ngày:
    25/8/10
    Bài viết:
    1,957
    Đã được cảm ơn:
    44,119
    Hài Xuân (2012) - Phước Lộc Thọ

    [​IMG]
    [​IMG]

    Mã:
    
    
    	

    General

    Complete name : C:\Download\DVD - Hai xuan 2012 - Phuoc Loc tho\VIDEO_TS\VTS_01_1.VOB Format : MPEG-PS File size : 414 MiB Duration : 14mn 54s Overall bit rate : 3 880 Kbps Writing library : encoded by TMPGEnc Authoring Works 4 Version. 4.0.7.32 Video ID : 224 (0xE0) Format : MPEG Video Format version : Version 2 Format profile : Main@Main Format settings, BVOP : Yes Format settings, Matrix : Default Duration : 14mn 54s Bit rate mode : Variable Bit rate : 3 579 Kbps Nominal bit rate : 5 604 Kbps Width : 720 pixels Height : 480 pixels Display aspect ratio : 16:9 Frame rate : 23.976 fps Standard : NTSC Color space : YUV Chroma subsampling : 4:2:0 Bit depth : 8 bits Scan type : Progressive Scan order : 2:3 Pulldown Compression mode : Lossy Bits/(Pixel*Frame) : 0.432 Stream size : 382 MiB (92%) Writing library : TMPGEnc Authoring Works 4 Version. 4.0.7.32 Audio ID : 189 (0xBD)-128 (0x80) Format : AC-3 Format/Info : Audio Coding 3 Mode extension : CM (complete main) Muxing mode : DVD-Video Duration : 14mn 54s Bit rate mode : Constant Bit rate : 224 Kbps Channel(s) : 2 channels Channel positions : Front: L R Sampling rate : 48.0 KHz Bit depth : 16 bits Compression mode : Lossy Stream size : 23.9 MiB (6%)
    [​IMG]
    Link tải phim
    Nhấn nút Cảm ơn (dưới chân bài) để thấy link!
     
    rongcanlc and fsvnhd like this.
  2. SKYHDVN

    SKYHDVN Member

    Tham gia ngày:
    29/10/11
    Bài viết:
    20
    Đã được cảm ơn:
    1
    Ðề: [Fshare] Hài Xuân (2012) - Phước Lộc Lọ [ DVD ISO ]

    Mong bạn post mấy đĩa hài này nữa để tết có cái xem.thx
     
  3. hdvietnam2011

    hdvietnam2011 Active Member

    Tham gia ngày:
    27/5/10
    Bài viết:
    266
    Đã được cảm ơn:
    37
    Ðề: [Fshare] Hài Xuân (2012) - Phước Lộc Lọ [ DVD ISO ]

    Xin cám ơn bác tuannm0508 rất nhiều,luôn tiện em xin hỏi bác tuannm0508 hoặc bác nào có đĩa Mừng Xuân (2011) - Phước Lộc Thọ do Nguyen Doan Production sản xuất không cho em xin link download với ?,thích nghe mấy bài của nhón Kidty hát nhưng trên Youtube toàn chất lượng thấp.
     
  4. hdvietnam2011

    hdvietnam2011 Active Member

    Tham gia ngày:
    27/5/10
    Bài viết:
    266
    Đã được cảm ơn:
    37
    Ðề: [Fshare] Hài Xuân (2012) - Phước Lộc Lọ [ DVD ISO ]

    tên chính xác đĩa DVD em đang muốn tìm là "HDVD Phước Lộc Thọ chúc xuân" của NGUYỄN ĐOÀN Production,nếu anh em nào có lòng xin vui lòng cho em xin link download nhé,hoặc có thể bán lại cho em cũng được,em xin chân thành cám ơn.
     
  5. nguyenthanhkhai912

    nguyenthanhkhai912 Member

    Tham gia ngày:
    24/4/10
    Bài viết:
    197
    Đã được cảm ơn:
    1
    Ðề: [Fshare] Hài Xuân (2012) - Phước Lộc Lọ [ DVD ISO ]

    bác ơi cho mih hỏi ,hinh như đây là hàng fake, của ai làm fai ko bác, ko fai của 1 Trung Tâm nào, nhìng cái list mih thấy sao những hài cũ :|,
     
  6. mrVuiton

    mrVuiton Member

    Tham gia ngày:
    22/9/09
    Bài viết:
    39
    Đã được cảm ơn:
    1
    Ðề: [Fshare] Hài Xuân (2012) - Phước Lộc Lọ [ DVD ISO ]

    em cũng nghĩ là hàng fake
     
  7. tong_1503

    tong_1503 Active Member

    Tham gia ngày:
    23/3/10
    Bài viết:
    449
    Đã được cảm ơn:
    206
    Ðề: [Fshare] Hài Xuân (2012) - Phước Lộc Lọ [ DVD ISO ]

    Hàng chính thống ai lại làm cái bìa đĩa sơ sài như vậy? Không ghi cả tên TT phát hành luôn nữa mới ghê chứ! Chẳng nhẻ ko cần cho ai biết là mình SX sao?
     
  8. k3nz0

    k3nz0 Well-Known Member

    Tham gia ngày:
    2/8/11
    Bài viết:
    709
    Đã được cảm ơn:
    873
    Ðề: [Fshare] Hài Xuân (2012) - Phước Lộc Lọ [ DVD ISO ]

    Hàng collection 2012 rồi , Thanks .
     
  9. MinhNk11

    MinhNk11 New Member

    Tham gia ngày:
    29/12/11
    Bài viết:
    2
    Đã được cảm ơn:
    0
    Ðề: [Fshare] Hài Xuân (2012) - Phước Lộc Lọ [ DVD ISO ]

    .............................................................
     
  10. Tidus_H

    Tidus_H New Member

    Tham gia ngày:
    30/12/11
    Bài viết:
    15
    Đã được cảm ơn:
    3
    Ðề: [Fshare] Hài Xuân (2012) - Phước Lộc Lọ [ DVD ISO ]

    Bạn này up nhanh quá hay sao mà Title đặt nhầm rồi kìa =))
     

Chia sẻ trang này