[Fshare|Blu-ray ISO]Thế Thân| Avatar 2009 3in1 1080p Blu-ray AVC DTS-HD MA 5.1-NMC - Menu, phụ đề Vi

Thảo luận trong 'Bluray Remux' bắt đầu bởi toilatoi1504, 27/6/16.

  1. toilatoi1504

    toilatoi1504 Well-Known Member

    Tham gia ngày:
    13/6/09
    Bài viết:
    1,453
    Đã được cảm ơn:
    1,520
    Nơi ở:
    Ha Noi, Viet Nam
    Avatar 2009 3in1 1080p Blu-ray AVC DTS-HD MA 5.1-NMC
    Mã:
    Bản Extended Collector's Cut (2:58:09)
    
    DISC INFO:
    
    
    	

    Disc Title: AVATAR_BD_NMC

    Disc Size: 45,110,589,440 bytes Protection: AACS BD-Java: Yes BDInfo: 0.5.8 PLAYLIST REPORT: Name: 00003.MPLS Length: 2:58:09.470 (h:m:s.ms) Size: 39,233,531,904 bytes Total Bitrate: 29.36 Mbps VIDEO: Codec Bitrate Description ----- ------- ----------- MPEG-4 AVC Video 23712 kbps 1080p / 23.976 fps / 16:9 / High Profile 4.1 AUDIO: Codec Language Bitrate Description ----- -------- ------- ----------- DTS-HD Master Audio English 4052 kbps 5.1 / 48 kHz / 4052 kbps / 24-bit (DTS Core: 5.1 / 48 kHz / 1509 kbps / 24-bit) SUBTITLES: Codec Language Bitrate Description ----- -------- ------- ----------- Presentation Graphics English 32.875 kbps Presentation Graphics Vietnamese 38.58 kbps Presentation Graphics Spanish 33.151 kbps Presentation Graphics Russian 33.078 kbps Presentation Graphics Chinese 23.114 kbps Presentation Graphics Korean 18.067 kbps Presentation Graphics Thai 25.502 kbps Presentation Graphics Spanish 0 kbps Presentation Graphics Japanese 0 kbps FILES: Name Time In Length Size Total Bitrate ---- ------- ------ ---- ------------- 00049.M2TS 0:00:00.000 0:10:24.457 2,301,591,552 29,485 kbps 00002.M2TS 0:10:24.457 0:17:46.023 3,407,831,040 25,574 kbps 00034.M2TS 0:28:10.480 0:00:41.833 193,886,208 37,077 kbps 00004.M2TS 0:28:52.313 0:01:28.129 381,941,760 34,670 kbps 00035.M2TS 0:30:20.443 0:02:07.460 515,198,976 32,336 kbps 00006.M2TS 0:32:27.904 0:15:08.908 3,649,265,664 32,120 kbps 00036.M2TS 0:47:36.812 0:00:30.321 151,541,760 39,982 kbps 00008.M2TS 0:48:07.134 0:05:26.617 1,033,340,928 25,310 kbps 00037.M2TS 0:53:33.752 0:00:40.040 124,655,616 24,906 kbps 00010.M2TS 0:54:13.792 0:03:34.172 666,476,544 24,894 kbps 00050.M2TS 0:57:47.964 0:00:44.085 135,561,216 24,599 kbps 00012.M2TS 0:58:32.050 0:04:41.948 1,018,650,624 28,903 kbps 00038.M2TS 1:03:13.998 0:00:43.209 175,859,712 32,559 kbps 00014.M2TS 1:03:57.208 0:06:00.068 1,388,820,480 30,856 kbps 00051.M2TS 1:09:57.276 0:05:56.522 1,096,587,264 24,606 kbps 00016.M2TS 1:15:53.799 0:01:43.520 312,532,992 24,152 kbps 00040.M2TS 1:17:37.319 0:00:25.233 127,875,072 40,541 kbps 00018.M2TS 1:18:02.552 0:07:51.721 1,748,133,888 29,646 kbps 00041.M2TS 1:25:54.274 0:02:05.708 610,719,744 38,865 kbps 00020.M2TS 1:27:59.982 0:07:45.381 1,583,603,712 27,222 kbps 00042.M2TS 1:35:45.364 0:01:45.438 328,734,720 24,942 kbps 00022.M2TS 1:37:30.803 0:09:20.893 1,996,683,264 28,478 kbps 00052.M2TS 1:46:51.696 0:02:06.501 400,515,072 25,328 kbps 00024.M2TS 1:48:58.198 0:43:42.161 10,153,838,592 30,978 kbps 00044.M2TS 2:32:40.359 0:00:37.495 162,662,400 34,705 kbps 00026.M2TS 2:33:17.855 0:01:57.367 492,552,192 33,573 kbps 00045.M2TS 2:35:15.222 0:00:25.358 127,027,200 40,073 kbps 00028.M2TS 2:35:40.581 0:05:09.934 1,498,202,112 38,671 kbps 00046.M2TS 2:40:50.515 0:00:15.849 78,237,696 39,491 kbps 00030.M2TS 2:41:06.364 0:05:30.705 1,508,782,080 36,498 kbps 00047.M2TS 2:46:37.070 0:02:38.741 639,535,104 32,230 kbps 00032.M2TS 2:49:15.812 0:03:53.983 773,775,360 26,455 kbps 00048.M2TS 2:53:09.795 0:04:59.674 448,911,360 11,983 kbps Bản Extended Theatrical Version (2:50:34) DISC INFO: Disc Title: AVATAR_BD_NMC Disc Size: 45,110,589,440 bytes Protection: AACS BD-Java: Yes BDInfo: 0.5.8 PLAYLIST REPORT: Name: 00002.MPLS Length: 2:50:34.182 (h:m:s.ms) Size: 37,751,586,816 bytes Total Bitrate: 29.51 Mbps VIDEO: Codec Bitrate Description ----- ------- ----------- MPEG-4 AVC Video 23914 kbps 1080p / 23.976 fps / 16:9 / High Profile 4.1 AUDIO: Codec Language Bitrate Description ----- -------- ------- ----------- DTS-HD Master Audio English 4075 kbps 5.1 / 48 kHz / 4075 kbps / 24-bit (DTS Core: 5.1 / 48 kHz / 1509 kbps / 24-bit) SUBTITLES: Codec Language Bitrate Description ----- -------- ------- ----------- Presentation Graphics English 38.461 kbps Presentation Graphics Vietnamese 45.496 kbps Presentation Graphics Spanish 36.552 kbps Presentation Graphics Russian 38.63 kbps Presentation Graphics Chinese 27.788 kbps Presentation Graphics Korean 19.43 kbps Presentation Graphics Thai 29.107 kbps Presentation Graphics Spanish 0 kbps Presentation Graphics Japanese 0 kbps FILES: Name Time In Length Size Total Bitrate ---- ------- ------ ---- ------------- 00001.M2TS 0:00:00.000 0:06:30.139 1,450,205,184 29,737 kbps 00002.M2TS 0:06:30.139 0:17:46.023 3,407,831,040 25,574 kbps 00034.M2TS 0:24:16.163 0:00:41.833 193,886,208 37,077 kbps 00004.M2TS 0:24:57.996 0:01:28.129 381,941,760 34,670 kbps 00035.M2TS 0:26:26.126 0:02:07.460 515,198,976 32,336 kbps 00006.M2TS 0:28:33.586 0:15:08.908 3,649,265,664 32,120 kbps 00036.M2TS 0:43:42.494 0:00:30.321 151,541,760 39,982 kbps 00008.M2TS 0:44:12.816 0:05:26.617 1,033,340,928 25,310 kbps 00037.M2TS 0:49:39.434 0:00:40.040 124,655,616 24,906 kbps 00010.M2TS 0:50:19.474 0:03:34.172 666,476,544 24,894 kbps 00011.M2TS 0:53:53.647 0:00:23.231 59,910,144 20,630 kbps 00012.M2TS 0:54:16.878 0:04:41.948 1,018,650,624 28,903 kbps 00038.M2TS 0:58:58.826 0:00:43.209 175,859,712 32,559 kbps 00014.M2TS 0:59:42.036 0:06:00.068 1,388,820,480 30,856 kbps 00039.M2TS 1:05:42.104 0:02:47.834 567,023,616 27,027 kbps 00016.M2TS 1:08:29.939 0:01:43.520 312,532,992 24,152 kbps 00040.M2TS 1:10:13.459 0:00:25.233 127,875,072 40,541 kbps 00018.M2TS 1:10:38.692 0:07:51.721 1,748,133,888 29,646 kbps 00041.M2TS 1:18:30.413 0:02:05.708 610,719,744 38,865 kbps 00020.M2TS 1:20:36.122 0:07:45.381 1,583,603,712 27,222 kbps 00042.M2TS 1:28:21.504 0:01:45.438 328,734,720 24,942 kbps 00022.M2TS 1:30:06.943 0:09:20.893 1,996,683,264 28,478 kbps 00043.M2TS 1:39:27.836 0:01:55.073 375,171,072 26,082 kbps 00024.M2TS 1:41:22.910 0:43:42.161 10,153,838,592 30,978 kbps 00044.M2TS 2:25:05.071 0:00:37.495 162,662,400 34,705 kbps 00026.M2TS 2:25:42.567 0:01:57.367 492,552,192 33,573 kbps 00045.M2TS 2:27:39.934 0:00:25.358 127,027,200 40,073 kbps 00028.M2TS 2:28:05.292 0:05:09.934 1,498,202,112 38,671 kbps 00046.M2TS 2:33:15.227 0:00:15.849 78,237,696 39,491 kbps 00030.M2TS 2:33:31.076 0:05:30.705 1,508,782,080 36,498 kbps 00047.M2TS 2:39:01.782 0:02:38.741 639,535,104 32,230 kbps 00032.M2TS 2:41:40.524 0:03:53.983 773,775,360 26,455 kbps 00048.M2TS 2:45:34.507 0:04:59.674 448,911,360 11,983 kbps Bản Original Theatrical Version (2:41:41) DISC INFO: Disc Title: AVATAR_BD_NMC Disc Size: 45,110,589,440 bytes Protection: AACS BD-Java: Yes BDInfo: 0.5.8 PLAYLIST REPORT: Name: 00001.MPLS Length: 2:41:41.691 (h:m:s.ms) Size: 35,387,781,120 bytes Total Bitrate: 29.18 Mbps VIDEO: Codec Bitrate Description ----- ------- ----------- MPEG-4 AVC Video 23914 kbps 1080p / 23.976 fps / 16:9 / High Profile 4.1 AUDIO: Codec Language Bitrate Description ----- -------- ------- ----------- DTS-HD Master Audio English 4075 kbps 5.1 / 48 kHz / 4075 kbps / 24-bit (DTS Core: 5.1 / 48 kHz / 1509 kbps / 24-bit) SUBTITLES: Codec Language Bitrate Description ----- -------- ------- ----------- Presentation Graphics English 38.461 kbps Presentation Graphics Vietnamese 45.496 kbps Presentation Graphics Spanish 36.552 kbps Presentation Graphics Russian 38.63 kbps Presentation Graphics Chinese 27.788 kbps Presentation Graphics Korean 19.43 kbps Presentation Graphics Thai 29.107 kbps Presentation Graphics Spanish 0 kbps Presentation Graphics Japanese 0 kbps FILES: Name Time In Length Size Total Bitrate ---- ------- ------ ---- ------------- 00001.M2TS 0:00:00.000 0:06:30.139 1,450,205,184 29,737 kbps 00002.M2TS 0:06:30.139 0:17:46.023 3,407,831,040 25,574 kbps 00003.M2TS 0:24:16.163 0:00:23.106 96,638,976 33,458 kbps 00004.M2TS 0:24:39.269 0:01:28.129 381,941,760 34,670 kbps 00005.M2TS 0:26:07.399 0:00:45.879 140,187,648 24,444 kbps 00006.M2TS 0:26:53.278 0:15:08.908 3,649,265,664 32,120 kbps 00007.M2TS 0:42:02.186 0:00:19.894 93,118,464 37,444 kbps 00008.M2TS 0:42:22.081 0:05:26.617 1,033,340,928 25,310 kbps 00009.M2TS 0:47:48.699 0:00:06.506 21,141,504 25,994 kbps 00010.M2TS 0:47:55.205 0:03:34.172 666,476,544 24,894 kbps 00011.M2TS 0:51:29.377 0:00:23.231 59,910,144 20,630 kbps 00012.M2TS 0:51:52.609 0:04:41.948 1,018,650,624 28,903 kbps 00013.M2TS 0:56:34.557 0:00:15.473 64,892,928 33,549 kbps 00014.M2TS 0:56:50.031 0:06:00.068 1,388,820,480 30,856 kbps 00015.M2TS 1:02:50.099 0:02:20.098 470,556,672 26,870 kbps 00016.M2TS 1:05:10.197 0:01:43.520 312,532,992 24,152 kbps 00017.M2TS 1:06:53.717 0:00:07.132 25,196,544 28,262 kbps 00018.M2TS 1:07:00.850 0:07:51.721 1,748,133,888 29,646 kbps 00019.M2TS 1:14:52.571 0:00:36.119 148,905,984 32,980 kbps 00020.M2TS 1:15:28.690 0:07:45.381 1,583,603,712 27,222 kbps 00021.M2TS 1:23:14.072 0:01:21.748 236,107,776 23,105 kbps 00022.M2TS 1:24:35.820 0:09:20.893 1,996,683,264 28,478 kbps 00023.M2TS 1:33:56.714 0:01:03.688 150,638,592 18,921 kbps 00024.M2TS 1:35:00.402 0:43:42.161 10,153,838,592 30,978 kbps 00025.M2TS 2:18:42.564 0:00:29.279 134,123,520 36,646 kbps 00026.M2TS 2:19:11.843 0:01:57.367 492,552,192 33,573 kbps 00027.M2TS 2:21:09.210 0:00:19.436 94,949,376 39,081 kbps 00028.M2TS 2:21:28.646 0:05:09.934 1,498,202,112 38,671 kbps 00029.M2TS 2:26:38.581 0:00:08.633 43,069,440 39,908 kbps 00030.M2TS 2:26:47.214 0:05:30.705 1,508,782,080 36,498 kbps 00031.M2TS 2:32:17.920 0:00:31.114 96,049,152 24,695 kbps 00032.M2TS 2:32:49.034 0:03:53.983 773,775,360 26,455 kbps 00033.M2TS 2:36:43.018 0:04:58.673 447,657,984 11,990 kbps
    [​IMG] [​IMG] [​IMG] [​IMG] [​IMG] [​IMG] [​IMG] [​IMG] [​IMG]

    Link tải phim
    Nhấn nút Cảm ơn (dưới chân bài) để thấy link!
     
  2. protri

    protri Well-Known Member

    Tham gia ngày:
    30/12/10
    Bài viết:
    531
    Đã được cảm ơn:
    8,821
    Ðề: [Fshare|Blu-ray ISO]Thế Thân| Avatar 2009 3in1 1080p Blu-ray AVC DTS-HD MA 5.1-NMC - Menu, phụ đề Việt

    xin hỏi bác chủ một điều!
    sau khi mình down phim này về và xem cấu trúc bluray sau khi remux không khác gì cấu trúc của bluray gốc.
    mạo muội hỏi bác, phim này bác remux phải không?
    mình muốn học hỏi và trao đổi kinh nghiệm về chuyện remux!
     
  3. toilatoi1504

    toilatoi1504 Well-Known Member

    Tham gia ngày:
    13/6/09
    Bài viết:
    1,453
    Đã được cảm ơn:
    1,520
    Nơi ở:
    Ha Noi, Viet Nam
    Ðề: [Fshare|Blu-ray ISO]Thế Thân| Avatar 2009 3in1 1080p Blu-ray AVC DTS-HD MA 5.1-NMC - Menu, phụ đề Việt

    Đương nhiên là mình remux rồi ;))

    Remux mà khác cấu trúc gốc (nối các file m2ts nhỏ lại thành 1...) thì chỉ là remux thường hầu hết ai cũng có thể làm được....
     
    Chỉnh sửa cuối: 5/7/16
    ba0ngan cảm ơn bài này.
  4. ba0ngan

    ba0ngan Active Member

    Tham gia ngày:
    17/10/19
    Bài viết:
    174
    Đã được cảm ơn:
    131
    Giới tính:
    Nữ
    Nghề nghiệp:
    electric
    Nơi ở:
    HCM
    Tuyệt vời...
     

Chia sẻ trang này