[Fshare | 1 Link | Kinh Dị] My Bloody Valentine BluRay 3D 1080p DTS (2009) Over Under

Thảo luận trong '3D' bắt đầu bởi riankill, 3/1/13.

  1. riankill

    riankill Well-Known Member

    Tham gia ngày:
    13/5/10
    Bài viết:
    810
    Đã được cảm ơn:
    1,168
    Nghề nghiệp:
    Đang tìm việc
    Nơi ở:
    Ha Noi
    My Bloody Valentine BluRay 3D 1080p DTS (2009) Over Under 18+

    *** Kỳ Valentine Đẫm Máu ***​


    [​IMG]

    [​IMG]

    Mã:

    G:\20025.My.Bloody.Valentine.3D.2009.1080p.DTS.Blu  ray.Over.Under.V.ASD\My.Bloody.Valentine.3D.2009.1  080p.DTS.Bluray.Over.Under.V.ASD.mkv
    
    	

    Format : Matroska Format version : Version 1 File size : 29.3 GiB Duration : 1h 41mn Overall bit rate : 41.6 Mbps Encoded date : UTC 2011-07-22 09:15:30 Writing application : mkvmerge v2.4.0 ('Fumbling Towards Ecstasy') built on Oct 11 2008 20:13:15 Writing library : libebml v0.7.7 + libmatroska v0.8.1 Video ID : 1 Format : AVC Format/Info : Advanced Video Codec Format profile : [email protected] Format settings, CABAC : No Format settings, ReFrames : 1 frame Format settings, GOP : M=1, N=12 Codec ID : V_MPEG4/ISO/AVC Duration : 1h 41mn Bit rate : 40.0 Mbps Width : 1 920 pixels Height : 1 080 pixels Display aspect ratio : 16:9 Frame rate mode : Constant Frame rate : 23.976 fps Color space : YUV Chroma subsampling : 4:2:0 Bit depth : 8 bits Scan type : Progressive Bits/(Pixel*Frame) : 0.805 Stream size : 27.7 GiB (94%) Writing library : x264 core 67 r1127 8d82fec Encoding settings : cabac=0 / ref=1 / deblock=0:0:0 / analyse=0x1:0 / me=dia / subme=8 / psy_rd=1.0:0.0 / mixed_ref=0 / me_range=4 / chroma_me=0 / trellis=0 / 8x8dct=0 / cqm=0 / deadzone=21,11 / chroma_qp_offset=-2 / threads=1 / nr=0 / decimate=1 / mbaff=0 / bframes=0 / keyint=12 / keyint_min=7 / scenecut=0 / rc=abr / bitrate=40000 / ratetol=1.0 / qcomp=0.50 / qpmin=2 / qpmax=31 / qpstep=3 / ip_ratio=1.25 / aq=1:1.00 Default : Yes Forced : No Audio ID : 2 Format : DTS Format/Info : Digital Theater Systems Mode : 16 Format settings, Endianness : Big Codec ID : A_DTS Duration : 1h 41mn Bit rate mode : Constant Bit rate : 1 509 Kbps Channel(s) : 6 channels Channel positions : Front: L C R, Side: L R, LFE Sampling rate : 48.0 KHz Bit depth : 24 bits Compression mode : Lossy Stream size : 1.06 GiB (4%) Language : English Default : Yes Forced : No Text ID : 3 Format : VobSub Muxing mode : zlib Codec ID : S_VOBSUB Codec ID/Info : The same subtitle format used on DVDs Title : Sub: Vie Language : Vietnamese Default : Yes Forced : No
    [​IMG]
    [​IMG]

    [video=youtube;hXe7EUBSEtU]http://www.youtube.com/watch?v=hXe7EUBSEtU[/video]

    [​IMG]

    [​IMG]

    1 Link Fshare: 29.3GB + Phụ đề Việt 3D mux sẵn​





     
    Chỉnh sửa cuối: 17/2/13
  2. riankill

    riankill Well-Known Member

    Tham gia ngày:
    13/5/10
    Bài viết:
    810
    Đã được cảm ơn:
    1,168
    Nghề nghiệp:
    Đang tìm việc
    Nơi ở:
    Ha Noi
    Ðề: [Fshare | 1 Link | Kinh Dị] My Bloody Valentine BluRay 3D 1080p DTS (2009) Over Under

    Chú ý bản này cho vào USB hay đầu phát HD hoặc 3D xem vô tư nhé $-)
     
  3. notdone

    notdone New Member

    Tham gia ngày:
    20/10/12
    Bài viết:
    1
    Đã được cảm ơn:
    0
    phim khủng phụ đề khủng mà fshare down :-(
     
  4. cuongtn87

    cuongtn87 Well-Known Member

    Tham gia ngày:
    9/10/12
    Bài viết:
    336
    Đã được cảm ơn:
    35
    fshare down ổn mà bác! cứ ra ngoài tiệm game mà down! 7-8mb/s cho vip acc
     
  5. nqt_0151989

    nqt_0151989 Member

    Tham gia ngày:
    23/12/08
    Bài viết:
    32
    Đã được cảm ơn:
    2
    Ðề: [Fshare | 1 Link | Kinh Dị] My Bloody Valentine BluRay 3D 1080p DTS (2009) Over Under

    bác chủ có bản SBS không ạ? bản này lúc chập hình vào hơi có bóng mờ
     
  6. riankill

    riankill Well-Known Member

    Tham gia ngày:
    13/5/10
    Bài viết:
    810
    Đã được cảm ơn:
    1,168
    Nghề nghiệp:
    Đang tìm việc
    Nơi ở:
    Ha Noi
    Ðề: [Fshare | 1 Link | Kinh Dị] My Bloody Valentine BluRay 3D 1080p DTS (2009) Over Under

    --- Mình có mỗi bản này thôi à...
     
  7. riankill

    riankill Well-Known Member

    Tham gia ngày:
    13/5/10
    Bài viết:
    810
    Đã được cảm ơn:
    1,168
    Nghề nghiệp:
    Đang tìm việc
    Nơi ở:
    Ha Noi
    Ðề: [Fshare | 1 Link | Kinh Dị] My Bloody Valentine BluRay 3D 1080p DTS (2009) Over Under

    --- Mà mình xem trên con LG LM 7600 vẫn bình thuòng mà...
     
  8. riankill

    riankill Well-Known Member

    Tham gia ngày:
    13/5/10
    Bài viết:
    810
    Đã được cảm ơn:
    1,168
    Nghề nghiệp:
    Đang tìm việc
    Nơi ở:
    Ha Noi
    Ðề: [Fshare | 1 Link | Kinh Dị] My Bloody Valentine BluRay 3D 1080p DTS (2009) Over Under

    --- Đã fix lại link cho mem nào cần...
     
  9. riankill

    riankill Well-Known Member

    Tham gia ngày:
    13/5/10
    Bài viết:
    810
    Đã được cảm ơn:
    1,168
    Nghề nghiệp:
    Đang tìm việc
    Nơi ở:
    Ha Noi
    Ðề: [Fshare | 1 Link | Kinh Dị] My Bloody Valentine BluRay 3D 1080p DTS (2009) Over Under

    --- Lên cho mem nào cần...
     
  10. riankill

    riankill Well-Known Member

    Tham gia ngày:
    13/5/10
    Bài viết:
    810
    Đã được cảm ơn:
    1,168
    Nghề nghiệp:
    Đang tìm việc
    Nơi ở:
    Ha Noi
    Ðề: [Fshare | 1 Link | Kinh Dị] My Bloody Valentine BluRay 3D 1080p DTS (2009) Over Under

    --- Lên cho mem nào quan tâm...
     
  11. sunshine1410

    sunshine1410 Active Member

    Tham gia ngày:
    12/12/09
    Bài viết:
    411
    Đã được cảm ơn:
    246
    Ðề: [Fshare | 1 Link | Kinh Dị] My Bloody Valentine BluRay 3D 1080p DTS (2009) Over Under

    ai có bản dung lượng khoảng 10Gb không?
     
  12. damthai12

    damthai12 Active Member

    Tham gia ngày:
    18/6/12
    Bài viết:
    154
    Đã được cảm ơn:
    56
    Bạn cho mình xin lại phim này với
     

Chia sẻ trang này