[Fshare] Enrique Iglesias - Tonight (I'm F**kin' You) (feat. Ludacris) (Dirty Version) (MasterRip 1080p AAC)

Thảo luận trong 'US-EU' bắt đầu bởi vinhtq115, 29/10/22.

  1. vinhtq115

    vinhtq115 Well-Known Member

    Tham gia ngày:
    1/4/12
    Bài viết:
    166
    Đã được cảm ơn:
    692
    Giới tính:
    Nam
    [​IMG]
    [​IMG]
    [​IMG]

    MediaInfo:
    Mã:

    General
    
    	

    Complete name : Enrique Iglesias - Tonight (I'm Fuckin' You) (feat. Ludacris) (Dirty Version) (MasterRip 1080p AAC).mp4 Format : MPEG-4 Format profile : Base Media Codec ID : isom (isom/iso2/avc1/mp41) File size : 442 MiB Duration : 4 min 59 s Overall bit rate : 12.4 Mb/s Writing application : Lavf59.32.100 Video ID : 1 Format : AVC Format/Info : Advanced Video Codec Format profile : [email protected] Format settings : CABAC / 5 Ref Frames Format settings, CABAC : Yes Format settings, Reference frames : 5 frames Codec ID : avc1 Codec ID/Info : Advanced Video Coding Duration : 4 min 59 s Bit rate : 12.2 Mb/s Width : 1 920 pixels Height : 800 pixels Display aspect ratio : 2.40:1 Frame rate mode : Constant Frame rate : 24.000 FPS Color space : YUV Chroma subsampling : 4:2:0 Bit depth : 8 bits Scan type : Progressive Bits/(Pixel*Frame) : 0.330 Stream size : 434 MiB (98%) Writing library : x264 core 164 r3095 baee400 Encoding settings : cabac=1 / ref=5 / deblock=1:-1:-1 / analyse=0x3:0x133 / me=umh / subme=10 / psy=1 / psy_rd=1.00:0.15 / mixed_ref=1 / me_range=24 / chroma_me=1 / trellis=2 / 8x8dct=1 / cqm=0 / deadzone=21,11 / fast_pskip=1 / chroma_qp_offset=-3 / threads=12 / lookahead_threads=2 / sliced_threads=0 / nr=0 / decimate=1 / interlaced=0 / bluray_compat=0 / constrained_intra=0 / bframes=8 / b_pyramid=2 / b_adapt=2 / b_bias=0 / direct=3 / weightb=1 / open_gop=0 / weightp=2 / keyint=250 / keyint_min=24 / scenecut=40 / intra_refresh=0 / rc_lookahead=60 / rc=crf / mbtree=1 / crf=16.0 / qcomp=0.60 / qpmin=0 / qpmax=69 / qpstep=4 / vbv_maxrate=31250 / vbv_bufsize=31250 / crf_max=0.0 / nal_hrd=none / filler=0 / ip_ratio=1.40 / aq=1:1.00 Color range : Limited Matrix coefficients : BT.709 Codec configuration box : avcC Audio ID : 2 Format : AAC LC Format/Info : Advanced Audio Codec Low Complexity Codec ID : mp4a-40-2 Duration : 4 min 59 s Source duration : 4 min 59 s Source_Duration_LastFrame : -10 ms Bit rate mode : Constant Bit rate : 231 kb/s Channel(s) : 2 channels Channel layout : L R Sampling rate : 48.0 kHz Frame rate : 46.875 FPS (1024 SPF) Compression mode : Lossy Stream size : 8.23 MiB (2%) Source stream size : 8.23 MiB (2%) Language : English Default : Yes Alternate group : 1
    Nguồn: ProRes (bản không che)

    Download:
    Nhấn nút Cảm ơn (dưới chân bài) để thấy link!
     

Chia sẻ trang này