[Fshare] Eminem - Rap God (MasterRip 1080p AAC)

Thảo luận trong 'US-EU' bắt đầu bởi vinhtq115, 18/2/23.

  1. vinhtq115

    vinhtq115 Well-Known Member

    Tham gia ngày:
    1/4/12
    Bài viết:
    166
    Đã được cảm ơn:
    695
    Giới tính:
    Nam
    [​IMG]

    MediaInfo:
    Mã:
    General
    Complete name                            : Eminem - Rap God (MasterRip 1080p AAC).mp4
    Format                                   : MPEG-4
    
    
    	

    Format profile : Base Media

    Codec ID : isom (isom) File size : 828 MiB Duration : 6 min 9 s Overall bit rate mode : Variable Overall bit rate : 18.8 Mb/s Encoded date : UTC 2023-02-18 11:48:11 Tagged date : UTC 2023-02-18 11:48:11 Video ID : 1 Format : AVC Format/Info : Advanced Video Codec Format profile : [email protected] Format settings : CABAC / 5 Ref Frames Format settings, CABAC : Yes Format settings, Reference frames : 5 frames Codec ID : avc1 Codec ID/Info : Advanced Video Coding Duration : 6 min 9 s Bit rate : 18.6 Mb/s Maximum bit rate : 41.9 Mb/s Width : 1 920 pixels Height : 764 pixels Display aspect ratio : 2.513 Frame rate mode : Constant Frame rate : 23.976 (23976/1000) FPS Original frame rate : 23.976 (24000/1001) FPS Color space : YUV Chroma subsampling : 4:2:0 Bit depth : 8 bits Scan type : Progressive Bits/(Pixel*Frame) : 0.527 Stream size : 816 MiB (99%) Writing library : x264 core 164 r3100 ed0f7a6 Encoding settings : cabac=1 / ref=5 / deblock=1:-1:-1 / analyse=0x3:0x133 / me=umh / subme=10 / psy=1 / psy_rd=1.00:0.15 / mixed_ref=1 / me_range=24 / chroma_me=1 / trellis=2 / 8x8dct=1 / cqm=0 / deadzone=21,11 / fast_pskip=1 / chroma_qp_offset=-3 / threads=9 / lookahead_threads=1 / sliced_threads=0 / nr=0 / decimate=1 / interlaced=0 / bluray_compat=0 / constrained_intra=0 / bframes=8 / b_pyramid=2 / b_adapt=2 / b_bias=0 / direct=3 / weightb=1 / open_gop=0 / weightp=2 / keyint=240 / keyint_min=23 / scenecut=40 / intra_refresh=0 / rc_lookahead=60 / rc=crf / mbtree=1 / crf=16.0 / qcomp=0.60 / qpmin=0 / qpmax=69 / qpstep=4 / vbv_maxrate=31250 / vbv_bufsize=31250 / crf_max=0.0 / nal_hrd=none / filler=0 / ip_ratio=1.40 / aq=1:1.00 Encoded date : UTC 2023-02-18 11:46:30 Tagged date : UTC 2023-02-18 11:48:13 mdhd_Duration : 369244 Codec configuration box : avcC Audio ID : 2 Format : AAC LC Format/Info : Advanced Audio Codec Low Complexity Codec ID : mp4a-40-2 Duration : 6 min 9 s Bit rate mode : Variable Bit rate : 252 kb/s Maximum bit rate : 321 kb/s Channel(s) : 2 channels Channel layout : L R Sampling rate : 44.1 kHz Frame rate : 43.066 FPS (1024 SPF) Compression mode : Lossy Stream size : 11.1 MiB (1%) Language : English Encoded date : UTC 2023-02-18 10:57:17 Tagged date : UTC 2023-02-18 11:48:13
    Download:
    Nhấn nút Cảm ơn (dưới chân bài) để thấy link!
     
  2. gia bao nguye

    gia bao nguye Active Member

    Tham gia ngày:
    3/10/20
    Bài viết:
    147
    Đã được cảm ơn:
    162
    Giới tính:
    Nam
    ok
     

Chia sẻ trang này