[Fshare] [ Drama] The Diplomat S01 2160p NF WEB-DL DDP5 1 Atmos DV HDR10 HEVC-XEBEC -Nhà Ngoại Giao

Thảo luận trong 'Phim bộ - Series' bắt đầu bởi canodinh, 28/5/23.

  1. canodinh

    canodinh Uploader

    Tham gia ngày:
    10/9/11
    Bài viết:
    22,556
    Đã được cảm ơn:
    271,723
    The Diplomat S01 2160p NF WEB-DL DDP5 1 Atmos DV HDR10 HEVC-XEBEC

    Sub việt mux sẵn

    Nhà Ngoại Giao

    [​IMG]


    Giữa khủng hoảng quốc tế, một nhà ngoại giao xoay xở với công việc mới gây chú ý là đại sứ tại Vương quốc Anh và cuộc hôn nhân sóng gió với một ngôi sao chính trị.




    General
    Unique ID : 104590959428766679275486240102484681632 (0x4EAF7C6EED34165792CEE887B0F223A0)
    Complete name : The.Diplomat.S01E01.The.Cinderella.Thing.2160p.NF.WEB-DL.DDP5.1.Atmos.DV.HDR.HEVC-XEBEC.mkv
    Format : Matroska
    Format version : Version 4
    File size : 4.54 GiB
    Duration : 50 min 51 s
    Overall bit rate : 12.8 Mb/s
    Writing application : mkvmerge v76.0 ('Celebration') 64-bit
    Writing library : libebml v1.4.4 + libmatroska v1.7.1

    Video
    ID : 1
    Format : HEVC
    Format/Info : High Efficiency Video Coding
    Format profile : Main 10@L5@Main
    HDR format : Dolby Vision, Version 1.0, dvhe.08.06, BL+RPU, HDR10 compatible / SMPTE ST 2086, HDR10 compatible
    Codec ID : V_MPEGH/ISO/HEVC
    Duration : 49 min 40 s
    Bit rate : 12.3 Mb/s
    Width : 3 840 pixels
    Height : 2 160 pixels
    Display aspect ratio : 16:9
    Frame rate mode : Constant
    Frame rate : 23.976 (24000/1001) FPS
    Color space : YUV
    Chroma subsampling : 4:2:0 (Type 2)
    Bit depth : 10 bits
    Bits/(Pixel*Frame) : 0.062
    Stream size : 4.26 GiB (94%)
    Default : Yes
    Forced : No
    Color range : Limited
    Color primaries : BT.2020
    Transfer characteristics : PQ
    Matrix coefficients : BT.2020 non-constant
    Mastering display color primaries : Display P3
    Mastering display luminance : min: 0.0001 cd/m2, max: 1000 cd/m2
    Maximum Content Light Level : 756 cd/m2
    Maximum Frame-Average Light Level : 97 cd/m2

    Audio
    ID : 2
    Format : E-AC-3 JOC
    Format/Info : Enhanced AC-3 with Joint Object Coding
    Commercial name : Dolby Digital Plus with Dolby Atmos
    Codec ID : A_EAC3
    Duration : 50 min 51 s
    Bit rate mode : Constant
    Bit rate : 768 kb/s
    Channel(s) : 6 channels
    Channel layout : L R C LFE Ls Rs
    Sampling rate : 48.0 kHz
    Frame rate : 31.250 FPS (1536 SPF)
    Compression mode : Lossy
    Stream size : 279 MiB (6%)
    Title : English
    Language : English
    Service kind : Complete Main
    Default : Yes
    Forced : No
    Complexity index : 16
    Number of dynamic objects : 15
    Bed channel count : 1 channel
    Bed channel configuration : LFE


    Subtitle......: Arabic / Chinese / Chinese / Czech / Danish / Dutch / English / English / Finnish / French / German / German / Greek / Hebrew / Croatian / Hungarian / Indonesian / Italian / Japanese / Korean / Malay / Norwegian Bokmal / phi / Polish / Portuguese / Portuguese / Romanian / Russian / Spanish / Spanish / Swedish / Thai / Turkish / Ukrainian / Vietnamese.



    [​IMG] [​IMG]
    [​IMG] [​IMG]


    Fshare ~ GB (8 Tập)

    Nhấn nút Cảm ơn (dưới chân bài) để thấy link!


    4Share

    Nhấn nút Cảm ơn (dưới chân bài) để thấy link!


    Sub Việt



    Tổng hợp phim 18+

    Link topic https://hdvietnam.xyz/threads/mutil...ng-nhat-ban-au-my-cap-nhat-hang-ngay.1796232/
    Nhấn nút Cảm ơn (dưới chân bài) để thấy link!


    Tổng hợp phim full Menu (Thuyết minh+Sub Việt) bluray (nethd.org)

    Nhấn nút Cảm ơn (dưới chân bài) để thấy link!


    Tổng hợp phim bộ Lồng tiếng, thuyết minh, sub việt

    Nhấn nút Cảm ơn (dưới chân bài) để thấy link!


    Tổng hợp phim hàng ngày

    Link topic https://hdvietnam.xyz/threads/tong-hop-phim-bluray-remux-iso-cap-nhat-hang-ngay.1796055/



    Nhấn nút Cảm ơn (dưới chân bài) để thấy link!




    Tổng hợp phim bluray Remux ISO 4K




    Mhd

    720p

    1080p

    Thuyết minh

    Remux

    ISO
     
    4lady64, teddy1303, boybuibam and 4 others like this.

Chia sẻ trang này