[Fshare] [ Drama] Singles Inferno S01 DV 2160p NF WEB-DL DDP5.1 H.265-Địa Ngục Độc Thân | Sub Việt

Thảo luận trong 'Phim bộ - Series' bắt đầu bởi canodinh, 23/2/23.

  1. canodinh

    canodinh Uploader

    Tham gia ngày:
    10/9/11
    Bài viết:
    21,815
    Đã được cảm ơn:
    262,761
    Singles Inferno S01 DV 2160p NF WEB-DL DDP5.1 H.265-RANOUTOFTAGS

    Sub việt mux sẵn

    Địa Ngục Độc Thân

    [​IMG]


    Single's Inferno kể về chín người đến sống trên một hòn đảo và cố gắng tìm kiếm tình yêu của đời mình.


    General
    Unique ID : 77481179002876327625220963323490351009 (0x3A4A551017C206D6D55F87555A8C37A1)
    Complete name : C:\phim\Singles.Inferno.S01.2160p.NF.WEB-DL.DUAL.DDP5.1.DV.HDR.H.265-RANOUTOFTAGS\Singles.Inferno.S01E01.Episode.1.2160p.NF.WEB-DL.DUAL.DDP5.1.DV.HDR.H.265-RANOUTOFTAGS.mkv
    Format : Matroska
    Format version : Version 4
    File size : 8.57 GiB
    Duration : 1 h 2 min
    Overall bit rate : 19.6 Mb/s
    Writing application : mkvmerge v73.0.0 ('25 or 6 to 4') 64-bit
    Writing library : libebml v1.4.4 + libmatroska v1.7.1

    Video
    ID : 1
    Format : HEVC
    Format/Info : High Efficiency Video Coding
    Format profile : Main 10@L5@Main
    HDR format : Dolby Vision, Version 1.0, dvhe.08.06, BL+RPU, HDR10 compatible / SMPTE ST 2086, HDR10 compatible
    Codec ID : V_MPEGH/ISO/HEVC
    Duration : 1 h 1 min
    Bit rate : 18.8 Mb/s
    Width : 3 840 pixels
    Height : 2 160 pixels
    Display aspect ratio : 16:9
    Frame rate mode : Constant
    Frame rate : 23.976 (24000/1001) FPS
    Color space : YUV
    Chroma subsampling : 4:2:0 (Type 2)
    Bit depth : 10 bits
    Bits/(Pixel*Frame) : 0.094
    Stream size : 8.01 GiB (93%)
    Language : Korean
    Default : Yes
    Forced : No
    Color range : Limited
    Color primaries : BT.2020
    Transfer characteristics : PQ
    Matrix coefficients : BT.2020 non-constant
    Mastering display color primaries : Display P3
    Mastering display luminance : min: 0.0001 cd/m2, max: 1000 cd/m2
    Maximum Content Light Level : 1427 cd/m2
    Maximum Frame-Average Light Level : 263 cd/m2

    Audio #1
    ID : 2
    Format : E-AC-3
    Format/Info : Enhanced AC-3
    Commercial name : Dolby Digital Plus
    Codec ID : A_EAC3
    Duration : 1 h 2 min
    Bit rate mode : Constant
    Bit rate : 640 kb/s
    Channel(s) : 6 channels
    Channel layout : L R C LFE Ls Rs
    Sampling rate : 48.0 kHz
    Frame rate : 31.250 FPS (1536 SPF)
    Compression mode : Lossy
    Stream size : 286 MiB (3%)
    Language : Korean
    Service kind : Complete Main
    Default : Yes
    Forced : No

    Audio #2
    ID : 3
    Format : E-AC-3
    Format/Info : Enhanced AC-3
    Commercial name : Dolby Digital Plus
    Codec ID : A_EAC3
    Duration : 1 h 2 min
    Bit rate mode : Constant
    Bit rate : 640 kb/s
    Channel(s) : 6 channels
    Channel layout : L R C LFE Ls Rs
    Sampling rate : 48.0 kHz
    Frame rate : 31.250 FPS (1536 SPF)
    Compression mode : Lossy
    Stream size : 286 MiB (3%)
    Language : English
    Service kind : Complete Main
    Default : No
    Forced : No

    Text #1
    ID : 4
    Format : UTF-8
    Codec ID : S_TEXT/UTF8
    Codec ID/Info : UTF-8 Plain Text
    Duration : 1 h 0 min
    Bit rate : 100 b/s
    Count of elements : 1166
    Stream size : 44.7 KiB (0%)
    Language : Enghish
    Default : No
    Forced : No

    Text #2
    ID : 5
    Format : UTF-8
    Codec ID : S_TEXT/UTF8
    Codec ID/Info : UTF-8 Plain Text
    Duration : 1 h 0 min
    Bit rate : 134 b/s
    Count of elements : 1166
    Stream size : 60.0 KiB (0%)
    Title : SDH
    Language : Vietnamese
    Default : No
    Forced : No





    [​IMG]

    [​IMG]

    [​IMG]

    [​IMG]


    Fshare ~ GB

    Nhấn nút Cảm ơn (dưới chân bài) để thấy link!


    4Share

    Nhấn nút Cảm ơn (dưới chân bài) để thấy link!


    Sub Việt



    Tổng hợp phim 18+

    Link topic https://hdvietnam.xyz/threads/mutil...ng-nhat-ban-au-my-cap-nhat-hang-ngay.1796232/

    Nhấn nút Cảm ơn (dưới chân bài) để thấy link!


    Tổng hợp phim full Menu (Thuyết minh+Sub Việt) bluray (nethd.org)

    Nhấn nút Cảm ơn (dưới chân bài) để thấy link!


    Tổng hợp phim bộ Lồng tiếng, thuyết minh, sub việt

    Nhấn nút Cảm ơn (dưới chân bài) để thấy link!


    Tổng hợp phim hàng ngày

    Link topic https://hdvietnam.xyz/threads/tong-hop-phim-bluray-remux-iso-cap-nhat-hang-ngay.1796055/

    Nhấn nút Cảm ơn (dưới chân bài) để thấy link!


    Tổng hợp phim bluray Remux ISO 4K






    mhd

    720p

    1080p

    Thuyết minh

    Remux

    ISO
     
  2. Nixon20k02

    Nixon20k02 Member

    Tham gia ngày:
    11/11/23
    Bài viết:
    99
    Đã được cảm ơn:
    10
    Giới tính:
    Nam
    Bác up lại cho em với được không ạ
     

Chia sẻ trang này