[MULTI] Đội đặc nhiệm nhà C21 | SDTV

Thảo luận trong 'mHD, SD' bắt đầu bởi ladykillah_rc, 16/9/11.

  1. ladykillah_rc

    ladykillah_rc Well-Known Member

    Tham gia ngày:
    16/11/10
    Bài viết:
    381
    Đã được cảm ơn:
    461
    Giới tính:
    Nam
    Nơi ở:
    Việt Nam
    [​IMG]
    Đội đặc nhiệm nhà C21 SDTV x264-EPiK
    [​IMG]
    Mã:
      
    
    
    	

    Video

    ID : 2 Format : AVC Format/Info : Advanced Video Codec Format profile : [email protected] Format settings, CABAC : Yes Format settings, ReFrames : 7 frames Muxing mode : Header stripping Codec ID : V_MPEG4/ISO/AVC Duration : 40mn 35s Bit rate : 648 Kbps Width : 346 pixels Height : 572 pixels Display aspect ratio : 4:3 Original display aspect ratio : 4:3 Frame rate : 25.000 fps Color space : YUV Chroma subsampling : 4:2:0 Bit depth : 8 bits Scan type : Progressive Bits/(Pixel*Frame) : 0.131 Stream size : 188 MiB (76%) Audio ID : 1 Format : MPEG Audio Format version : Version 1 Format profile : Layer 2 Muxing mode : Header stripping Codec ID : A_MPEG/L2 Codec ID/Hint : MP2 Duration : 40mn 35s Bit rate mode : Constant Bit rate : 192 Kbps Channel(s) : 2 channels Sampling rate : 48.0 KHz Compression mode : Lossy Delay relative to video : 40ms Stream size : 55.7 MiB (22%) Title : 246~EPiK all.hdvnbits.org Language : Vietnamese
    [​IMG]
    Có một dạo ca khúc Tuổi thần tiên được thiếu nhi Việt Nam thuộc nằm lòng từng câu từng chữ. Bài ca về thế hệ trẻ thời đó không ngẫu nhiên mà đi sâu vào đời sống hàng ngày như vậy. Đó là nhờ một bộ phim truyền hình mang cái tên cực kỳ lý thú Đội đặc nhiệm nhà C21 (đạo diễn Vũ Hồng Sơn).

    Phim đưa khán giả theo chân những chuyến phiêu lưu của nhóm bạn ở khu tập thể nhà C21, hài hước, thông minh nhưng vẫn ngây ngô, khờ dại đúng với tuổi học trò chúng mình. Khán giả nhí được cười thả ga với những tình huống dở khóc dở cười của nhóm bạn: Minh “tổ cú”, Tùng “khểnh”, Quang “sọt”, Sáng “béo”, Sơn “sọ”, Tuyết “mèo con”, Hạnh “tăm tre”, Sinh “mặt già”. Đó là những khi vì quá sợ mà Quang “sọt” tè cả ra quần; khi Tuyết vô cùng mắc cỡ với cậu em cởi truồng xuống hái sen; hay cảnh mặc váy nhảy dây để đời của Hạnh “tăm tre” bị Sáng “béo” chộp lại trong album của nhóm.


    [​IMG]
    Mã:
    http://www.youtube.com/watch?v=HpaVqzunLf8&feature=player_embedded
    [​IMG]
    [​IMG]
    [​IMG]
    [​IMG]
    [​IMG]



    [​IMG]
    Mã:
    http://all.hdvnbits.org/doi_dac_nhiem_nha_c21_sdtv_x264_epik_t20911.html
    Mã:
    http://www.fshare.vn/folder/T39AYWZ9ZT
    Mã:
    http://www.mediafire.com/?a2tvpw0y1b101
    Mã:
    http://www.megaupload.com/?f=J7S7BUAQ
    Mã:
    http://fileserve.com/list/ke8MJjV
    Mã:
    http://www.filesonic.vn/folder/11630041
    Mã:
    http://www.wupload.com/folder/560506
     
    co_don_272727 cảm ơn bài này.

Chia sẻ trang này