Đời Cát 1999 PAL DVD

Thảo luận trong 'mHD, SD' bắt đầu bởi truoduc, 29/8/13.

  1. truoduc

    truoduc Well-Known Member

    Tham gia ngày:
    4/10/09
    Bài viết:
    39,192
    Đã được cảm ơn:
    91,195
    Giới tính:
    Nam
    [​IMG]

    [​IMG]

    Mã:
    General
    Unique ID                                : 149969288234773057687028116363890139005 (0x70D308C78E4524F1B6CCB6C116081F7D)
    Complete name                            : D:\Torrents\FILM KINH DIEN [viet nam]\FILM KINH DIEN [viet nam]\DoiCat(1999)DVD\DoiCat(1999)DVD.mkv
    
    
    	

    Format : Matroska

    Format version : Version 2 File size : 3.91 GiB Duration : 1h 27mn Overall bit rate : 6 386 Kbps Encoded date : UTC 2011-07-05 05:40:42 Writing application : MakeMKV v1.6.10 win(x86-release) Writing library : libmakemkv v1.6.10 (1.2.0/1.1.0) win(x86-release) Video ID : 1 Format : MPEG Video Format version : Version 2 Format profile : Main@Main Format settings, BVOP : No Format settings, Matrix : Custom Codec ID : V_MPEG2 Codec ID/Info : MPEG 1 or 2 Video Duration : 1h 27mn Bit rate : 5 875 Kbps Maximum bit rate : 6 000 Kbps Width : 720 pixels Height : 576 pixels Display aspect ratio : 4:3 Frame rate mode : Constant Frame rate : 25.000 fps Standard : PAL Color space : YUV Chroma subsampling : 4:2:0 Bit depth : 8 bits Scan type : Interlaced Scan order : Bottom Field First Compression mode : Lossy Bits/(Pixel*Frame) : 0.567 Stream size : 3.60 GiB (92%) Alignment : encoded by TMPGEnc 3.0 XPress Version. 3.0.4.24 Title : TMPGEnc Writing application : 3.0 XPress Version. 3.0.4.24 Writing library : TMPGEnc 3.0 XPress Version. 3.0.4.24 Language : English Default : Yes Forced : No Color primaries : BT.601 PAL Transfer characteristics : BT.470 System B, BT.470 System G Matrix coefficients : FCC 73.682 Audio ID : 2 Format : MPEG Audio Format version : Version 1 Format profile : Layer 2 Codec ID : A_MPEG/L2 Codec ID/Hint : MP2 Duration : 1h 27mn Bit rate mode : Constant Bit rate : 384 Kbps Channel(s) : 2 channels Sampling rate : 48.0 KHz Compression mode : Lossy Stream size : 241 MiB (6%) Title : 2/0 Language : English Default : Yes Forced : No Menu 00:00:00.000 : en:Chapter 01
    [​IMG]

    [​IMG]

    [​IMG]

    [​IMG]

    [​IMG]

    [​IMG]

    Mã:
    http://www.fshare.vn/file/TSC2D4YD1T/
     
    cuongdigital and tnk like this.

Chia sẻ trang này