Đêm Hội Long Trì 1989 PAL DVD

Thảo luận trong 'mHD, SD' bắt đầu bởi truoduc, 29/8/13.

  1. truoduc

    truoduc Well-Known Member

    Tham gia ngày:
    4/10/09
    Bài viết:
    39,192
    Đã được cảm ơn:
    91,218
    Giới tính:
    Nam
    [​IMG]

    [​IMG]

    Mã:
    General
    Unique ID                                : 171045351222995997620665615046310610872 (0x80AE22E9980997362351251AC6CFC7B8)
    Complete name                            : D:\Torrents\FILM KINH DIEN [viet nam]\FILM KINH DIEN [viet nam]\DemHoiLongTri(1989)DVD 2.tap\DemHoiLongTri(1989)DVDTap1.mkv
    
    
    	

    Format : Matroska

    Format version : Version 2 File size : 4.06 GiB Duration : 1h 35mn Overall bit rate mode : Variable Overall bit rate : 6 104 Kbps Encoded date : UTC 2011-07-07 06:45:42 Writing application : MakeMKV v1.6.10 win(x86-release) Writing library : libmakemkv v1.6.10 (1.2.0/1.1.0) win(x86-release) Video ID : 1 Format : MPEG Video Format version : Version 2 Format profile : Main@Main Format settings, BVOP : No Format settings, Matrix : Custom Codec ID : V_MPEG2 Codec ID/Info : MPEG 1 or 2 Video Duration : 1h 35mn Bit rate mode : Variable Bit rate : 5 598 Kbps Maximum bit rate : 8 000 Kbps Width : 720 pixels Height : 576 pixels Display aspect ratio : 4:3 Frame rate mode : Constant Frame rate : 25.000 fps Standard : PAL Color space : YUV Chroma subsampling : 4:2:0 Bit depth : 8 bits Scan type : Interlaced Scan order : Bottom Field First Compression mode : Lossy Bits/(Pixel*Frame) : 0.540 Stream size : 3.72 GiB (92%) Alignment : encoded by TMPGEnc (ver. 2.58.44.152) Title : TMPGEnc Writing application : 2.58.44.152 Writing library : TMPGEnc 2.58.44.152 Language : English Default : Yes Forced : No Color primaries : BT.601 PAL Transfer characteristics : BT.470 System B, BT.470 System G Matrix coefficients : FCC 73.682 Audio ID : 2 Format : MPEG Audio Format version : Version 1 Format profile : Layer 2 Codec ID : A_MPEG/L2 Codec ID/Hint : MP2 Duration : 1h 35mn Bit rate mode : Constant Bit rate : 384 Kbps Channel(s) : 2 channels Sampling rate : 48.0 KHz Compression mode : Lossy Stream size : 261 MiB (6%) Title : 2/0 Language : English Default : Yes Forced : No Menu 00:00:00.000 : en:Chapter 01 00:10:00.480 : en:Chapter 02 00:20:00.480 : en:Chapter 03 00:30:00.280 : en:Chapter 04 00:40:00.080 : en:Chapter 05 00:50:00.200 : en:Chapter 06 01:00:00.400 : en:Chapter 07 01:10:00.480 : en:Chapter 08 01:19:59.960 : en:Chapter 09 01:30:00.400 : en:Chapter 10
    [​IMG]

    [​IMG]

    [​IMG]

    [​IMG]

    [​IMG]

    Mã:
    http://www.fshare.vn/folder/CB7B3EWJHY

     

Chia sẻ trang này