[Fshare] CSI New York - Season 1 - 9 [192Gb] - 1080p x265 HEVC d3g

Thảo luận trong 'Phim bộ - Series' bắt đầu bởi hnam31190, 20/11/22.

Tags
  1. hnam31190

    hnam31190 Well-Known Member

    Tham gia ngày:
    24/3/10
    Bài viết:
    661
    Đã được cảm ơn:
    1,397
    [​IMG]


    Mã:
    General
    Unique ID                   : 214865607013609848395330690158862491140 (0xA1A59C53FE6FE9ED94B81692CC035E04)
    Complete name               : CSI.NY.S05E01.Veritas.WEBRip.1080p.DD5.1.H265-d3g.mkv
    Format                      : Matroska
    Format version              : Version 2
    File size                   : 956 MiB
    Duration                    : 41 min 7 s
    Overall bit rate            : 3 252 kb/s
    Movie name                  : CSI.NY.S05E01.Veritas.WEBRip.1080p.DD5.1.H265-d3g
    Encoded date                : UTC 2018-12-17 18:10:04
    Writing application         : DVDFab 10.0.9.2
    Writing library             : libebml v1.3.4 + libmatroska v1.4.5
    Video
    ID                          : 1
    Format                      : HEVC
    Format/Info                 : High Efficiency Video Coding
    Format profile              : [email protected]@Main
    Codec ID                    : V_MPEGH/ISO/HEVC
    Duration                    : 41 min 6 s
    Bit rate                    : 2 803 kb/s
    Width                       : 1 920 pixels
    Height                      : 1 080 pixels
    Display aspect ratio        : 16:9
    Frame rate mode             : Constant
    Frame rate                  : 23.976 (24000/1001) FPS
    Color space                 : YUV
    Chroma subsampling          : 4:2:0
    Bit depth                   : 8 bits
    Bits/(Pixel*Frame)          : 0.056
    Stream size                 : 824 MiB (86%)
    Default                     : Yes
    Forced                      : No
    Color range                 : Limited
    Color primaries             : BT.709
    Transfer characteristics    : BT.709
    Matrix coefficients         : BT.709
    Audio
    ID                          : 2
    Format                      : AC-3
    Format/Info                 : Audio Coding 3
    Commercial name             : Dolby Digital
    Codec ID                    : A_AC3
    Duration                    : 41 min 7 s
    Bit rate mode               : Constant
    Bit rate                    : 448 kb/s
    Channel(s)                  : 6 channels
    Channel layout              : L R C LFE Ls Rs
    Sampling rate               : 48.0 kHz
    Frame rate                  : 31.250 FPS (1536 SPF)
    Compression mode            : Lossy
    Stream size                 : 132 MiB (14%)
    Language                    : English
    Service kind                : Complete Main
    Default                     : Yes
    Forced                      : No
    LINK DOWNLOAD
    Nhấn nút Cảm ơn (dưới chân bài) để thấy link!


    Tất cả các season đều full sub English. Sub tiếng việt mình sẽ bổ sung khi tìm được bản phù hợp với source bên trên

    Tập nào bị lỗi request mình qua group zalo " gg.gg/zalox265 "

     
    Chỉnh sửa cuối: 21/11/22
    riri_, hutapa, TanDuong2021 and 48 others like this.
  2. thuy1221

    thuy1221 Member

    Tham gia ngày:
    19/10/22
    Bài viết:
    52
    Đã được cảm ơn:
    10
    Giới tính:
    Nam
    có sub viet được mấy phần rồi bác ơi
     
  3. teguh

    teguh Member

    Tham gia ngày:
    7/9/17
    Bài viết:
    128
    Đã được cảm ơn:
    12
    Giới tính:
    Nam
    please upload another CSI series. Thanks
     
  4. hnam31190

    hnam31190 Well-Known Member

    Tham gia ngày:
    24/3/10
    Bài viết:
    661
    Đã được cảm ơn:
    1,397
    I have Cyber, Miami, and the original. which one do you want
     
    hpfamily cảm ơn bài này.
  5. Fallenx

    Fallenx New Member

    Tham gia ngày:
    13/4/22
    Bài viết:
    9
    Đã được cảm ơn:
    0
    Giới tính:
    Nam
    bác ơi bác up thêm phần Miami đi bác
     
  6. hnam31190

    hnam31190 Well-Known Member

    Tham gia ngày:
    24/3/10
    Bài viết:
    661
    Đã được cảm ơn:
    1,397
    Tối nhé bác :v
     
  7. Esctheend

    Esctheend New Member

    Tham gia ngày:
    4/8/12
    Bài viết:
    5
    Đã được cảm ơn:
    5
    Bác ơi, Có Sub Việt chưa bác ?
     
  8. Yahooligan

    Yahooligan Active Member

    Tham gia ngày:
    8/3/11
    Bài viết:
    312
    Đã được cảm ơn:
    243
    sao ko thấy kèm EN sub vậy thím?
    Ah file riêng :)
     
    hnam31190 cảm ơn bài này.
  9. hnam31190

    hnam31190 Well-Known Member

    Tham gia ngày:
    24/3/10
    Bài viết:
    661
    Đã được cảm ơn:
    1,397
    ngày xưa tìm đc source. sau họ mới up sub riêng sau :D
     
  10. Yahooligan

    Yahooligan Active Member

    Tham gia ngày:
    8/3/11
    Bài viết:
    312
    Đã được cảm ơn:
    243
    SẮP CÓ PHẦN MIAMI CHƯA BẠN :(
     
  11. hnam31190

    hnam31190 Well-Known Member

    Tham gia ngày:
    24/3/10
    Bài viết:
    661
    Đã được cảm ơn:
    1,397
    hix. vừa bị điều đi công tác đột xuất. ko kịp làm gì hết. sorry bác. đành phải lùi lịch lại vậy
     
  12. Dao Cong DUy

    Dao Cong DUy New Member

    Tham gia ngày:
    21/11/17
    Bài viết:
    1
    Đã được cảm ơn:
    0
    Giới tính:
    Nam
    Có thời gian up hết các phần nha a. Hồi nhỏ coi trên TV tìm mãi giờ mới có người up. Cảm ơn a trước.
     
  13. teguh

    teguh Member

    Tham gia ngày:
    7/9/17
    Bài viết:
    128
    Đã được cảm ơn:
    12
    Giới tính:
    Nam
    please upload the original one. thanks
     
  14. kippy2104

    kippy2104 New Member

    Tham gia ngày:
    19/2/21
    Bài viết:
    5
    Đã được cảm ơn:
    0
    Giới tính:
    Nam
    Bác nào có Vietsub phim này ko ạ?
     
  15. hnam31190

    hnam31190 Well-Known Member

    Tham gia ngày:
    24/3/10
    Bài viết:
    661
    Đã được cảm ơn:
    1,397
    Scheduled my upload now. gotta fix some issues with few seasons.
     
  16. sabaku

    sabaku Active Member

    Tham gia ngày:
    31/12/08
    Bài viết:
    650
    Đã được cảm ơn:
    116
    Nghề nghiệp:
    Pharmacy Product Specialist
    Nơi ở:
    Hà Nội
    Hic, bản sub duy nhất trên subscene thì bị lệch time so vs sub eng của chủ thớt :'(((
     
    Esctheend cảm ơn bài này.

Chia sẻ trang này