[Comedy|Fantasy|Horror][MKV] Leprechaun Returns (2018) Blu-Ray Remux AVC DTS-HD MA 5.1 NoGroup

Thảo luận trong 'Bluray Remux' bắt đầu bởi Đặng Trung Hiếu, 26/5/20.

  1. Đặng Trung Hiếu

    Đặng Trung Hiếu Well-Known Member

    Tham gia ngày:
    23/7/18
    Bài viết:
    406
    Đã được cảm ơn:
    1,041
    Giới tính:
    Nam
    Làm phát Host mới luôn nà :D Cho nó dui, chứ giá chát lòi giờ chưa ai đăng kí Acc Pre tải đâu @@!
    Leprechaun Returns (2018)
    IMDB: 5.0/10

    [​IMG]

    Là một trong những bộ phim kinh dị gây nhiều bất ngờ nhất của điện ảnh Mỹ trong năm 1993, Leprechaun cũng chính là tác phẩm đưa tên tuổi của nữ diễn viên Jennifer Aniston lên một tầm cao mới, phim chỉ được đầu tư kinh phí 900 nghìn USD, nó thu về gần 8,5 triệu USD và quan trọng là tạo được thương hiệu “quỷ Lùn” đầy ám ảnh đối với người xem trong suốt nhiều năm. Lấy ỷ tưởng từ siêu phầm này nào, năm 2018, đạo diễn Steven Kostanski đã quyết định thực hiện một phiên bản khác mang tên Quỷ Lùn Hồi Sinh. Vẫn là hài hước, kinh dị kết hợp với giả tưởng, Leprechaun Returns liệu rằng có thể tạo được những bất ngờ như bản gốc năm 1993, chúng ta hãy cùng theo dõi.
    Hai mươi năm năm trước, một phụ nữ trẻ và những người bạn của cô đã ngăn chặn một tên Quỷ Lùn độc ác bằng cách nhét một chiếc cỏ bốn lá vào miệng và nhìn cơ thể tan chảy của nó rơi xuống một cái giếng ở Bắc Dakota. Tuy nhiên, điều gì đã xảy ra trong cái giếng đó thì vẫn là những sự phỏng đoán và vẫn chưa có câu trả lời chính xác. Ngày nay, chiếc chiếc này được quản lý bởi AU Sorority House của một trường đại học khoa học sinh thái.

    Trong khi đó, một nhóm sinh viên quyết định dành kỳ nghỉ hè của họ để biến ngôi nhà thành nơi ở “xanh” hoàn hảo. Và nó sẽ đủ thách thức, nếu không xảy ra việc họ vô tình hồi sinh Leprechaun đồi trụy. Bây giờ hắn ta đã quay lại từ cái giếng và quyết tâm trở lại lấy vàng của mình bằng cách dạy cho những người phụ nữ này một bài học về sự chết chóc. Nhóm bạn nữ lúc này phải cùng nhau tìm vàng của hắn ta và cố gắng hạ gục tên Leprechaun kỳ thị nữ giới này.


    Mã:
    Format                      : Matroska
    Format version              : Version 4
    File size                   : 14.9 GiB
    Duration                    : 1 h 32 min
    Overall bit rate mode       : Variable
    Overall bit rate            : 22.9 Mb/s
    Movie name                  : Leprechaun Returns (2018)
    Encoded date                : UTC 2020-05-25 09:20:32
    Writing application         : mkvmerge v46.0.0 ('No Deeper Escape') 64-bit
    
    
    Writing library             : libebml v1.3.10 + libmatroska v1.5.2
    Cover                       : Yes
    Attachments                 : cover.png
    Video
    ID                          : 1
    Format                      : AVC
    Format/Info                 : Advanced Video Codec
    Format profile              : [email protected]
    Format settings             : CABAC / 3 Ref Frames
    Format settings, CABAC      : Yes
    Format settings, Reference  : 3 frames
    Format settings, GOP        : M=3, N=12
    Codec ID                    : V_MPEG4/ISO/AVC
    Duration                    : 1 h 32 min
    Bit rate mode               : Variable
    Bit rate                    : 20.9 Mb/s
    Maximum bit rate            : 35.0 Mb/s
    Width                       : 1 920 pixels
    Height                      : 1 080 pixels
    Display aspect ratio        : 16:9
    Frame rate mode             : Constant
    Frame rate                  : 23.976 (24000/1001) FPS
    Standard                    : NTSC
    Color space                 : YUV
    Chroma subsampling          : 4:2:0
    Bit depth                   : 8 bits
    Scan type                   : Progressive
    Bits/(Pixel*Frame)          : 0.420
    Stream size                 : 13.6 GiB (91%)
    Default                     : Yes
    Forced                      : No
    Color range                 : Limited
    Color primaries             : BT.709
    Transfer characteristics    : BT.709
    Matrix coefficients         : BT.709
    Audio
    ID                          : 2
    Format                      : DTS XLL
    Format/Info                 : Digital Theater Systems
    Commercial name             : DTS-HD Master Audio
    Codec ID                    : A_DTS
    Duration                    : 1 h 32 min
    Bit rate mode               : Variable
    Bit rate                    : 1 990 kb/s
    Channel(s)                  : 6 channels
    Channel layout              : C L R Ls Rs LFE
    Sampling rate               : 48.0 kHz
    Frame rate                  : 93.750 FPS (512 SPF)
    Bit depth                   : 16 bits
    Compression mode            : Lossless
    Stream size                 : 1.29 GiB (9%)
    Language                    : English
    Default                     : Yes
    Forced                      : No
    Text #1
    ID                          : 3
    Format                      : UTF-8
    Codec ID                    : S_TEXT/UTF8
    Codec ID/Info               : UTF-8 Plain Text
    Duration                    : 1 h 31 min
    Bit rate                    : 69 b/s
    Count of elements           : 1173
    Stream size                 : 46.5 KiB (0%)
    Language                    : Vietnamese
    Default                     : Yes
    Forced                      : No
    Text #2
    ID                          : 4
    Format                      : UTF-8
    Codec ID                    : S_TEXT/UTF8
    Codec ID/Info               : UTF-8 Plain Text
    Duration                    : 1 h 27 min
    Bit rate                    : 48 b/s
    Count of elements           : 988
    Stream size                 : 30.9 KiB (0%)
    Language                    : English
    Default                     : No
    Forced                      : No
    Menu
    00:00:00.000                : en:Chapter 01
    00:07:59.688                : en:Chapter 02
    00:16:56.224                : en:Chapter 03
    00:24:59.707                : en:Chapter 04
    00:31:35.102                : en:Chapter 05
    00:41:10.134                : en:Chapter 06
    00:49:21.375                : en:Chapter 07
    00:53:47.391                : en:Chapter 08
    01:03:35.145                : en:Chapter 09
    01:11:13.019                : en:Chapter 10
    01:19:27.554                : en:Chapter 11
    01:29:09.678                : en:Chapter 12
    Screenshot
    [​IMG]
    [​IMG]
    [​IMG]
    [​IMG]
    [​IMG]


    Link
    Nhấn nút Cảm ơn (dưới chân bài) để thấy link!

    Sub Việt mux sẵn trong File MKV

    Fshare.vn: http://www.hdvietnam.com/threads/co...-ray-remux-avc-dts-hd-ma-5-1-nogroup.1607347/

    MD5

    C81397644E935AC8074B8983BD154036​
     
    Chỉnh sửa cuối: 27/5/20
  2. Uchiha_Madara

    Uchiha_Madara Nghỉ hưu

    Tham gia ngày:
    30/10/12
    Bài viết:
    1,141
    Đã được cảm ơn:
    4,282
    Lần sau bạn đợi có link xong xuôi rồi tạo topic nhé, đây là luật. Không cho tạo topic trước, cập nhật link sau, vì như thế sẽ mất thời gian của người đọc.
     
  3. Đặng Trung Hiếu

    Đặng Trung Hiếu Well-Known Member

    Tham gia ngày:
    23/7/18
    Bài viết:
    406
    Đã được cảm ơn:
    1,041
    Giới tính:
    Nam
    Dạ @@!
    Nãy Up đi viết bài (Copy qua :D) quay qua thấy nó lỗi, Up lại mới trễ, cảm ơn @ssmin :D
     
    Tài FreeSs and Uchiha_Madara like this.
  4. ba0ngan

    ba0ngan Active Member

    Tham gia ngày:
    17/10/19
    Bài viết:
    174
    Đã được cảm ơn:
    131
    Giới tính:
    Nữ
    Nghề nghiệp:
    electric
    Nơi ở:
    HCM
    Phim đầu tiên của thread Files.pw
     
    Ancktv97x, Tài FreeSs and files.pw like this.
  5. hugononglam

    hugononglam Well-Known Member

    Tham gia ngày:
    3/5/09
    Bài viết:
    1,040
    Đã được cảm ơn:
    1,092
    Độc quyền thị trường nó vậy đó bạn ơi. DN mới tham gia sẽ gặp khó trăm bề
     
    files.pw cảm ơn bài này.
  6. tommyking

    tommyking Well-Known Member

    Tham gia ngày:
    24/4/09
    Bài viết:
    873
    Đã được cảm ơn:
    15,267
    Giới tính:
    Nam
    Khó với downloader là vậy, còn khó cho Uploader nhiều hơn nữa kìa, mình chờ thôi, xem tình hình sao, chứ mình cũng nhăm nhe sang host này từ đầu đấy, nhưng thấy có quá nhiều vấn đề nên stop ngay :))
     
    files.pw cảm ơn bài này.
  7. files.pw

    files.pw Moderator Thành viên BQT

    Tham gia ngày:
    26/5/20
    Bài viết:
    316
    Đã được cảm ơn:
    131
    Giới tính:
    Nam
    Nghề nghiệp:
    Supporting
    Nơi ở:
    Hải phòng
    Bạn yêu cầu bên mình. Từ đợt đầu rồi. Chính sách nếu áp dụng theo bạn yêu cầu bên mình không đáp ứng được.
     
  8. zinzuno

    zinzuno Uploader

    Tham gia ngày:
    27/9/10
    Bài viết:
    32,307
    Đã được cảm ơn:
    442,580
    được mấy lượt rồi. mới up thử 1 file coi sao
     
  9. Đặng Trung Hiếu

    Đặng Trung Hiếu Well-Known Member

    Tham gia ngày:
    23/7/18
    Bài viết:
    406
    Đã được cảm ơn:
    1,041
    Giới tính:
    Nam
    Hẵn 1 lượt "tải thành công" nhé bác :D
     
  10. zinzuno

    zinzuno Uploader

    Tham gia ngày:
    27/9/10
    Bài viết:
    32,307
    Đã được cảm ơn:
    442,580
    cố lên biết đâu 1 ngày
     
  11. Đặng Trung Hiếu

    Đặng Trung Hiếu Well-Known Member

    Tham gia ngày:
    23/7/18
    Bài viết:
    406
    Đã được cảm ơn:
    1,041
    Giới tính:
    Nam
    "Ngày đó ngày đó sẽ không xa xôi ..."
    Mà với cách tính điểm của cái Host này thì có vẻ Up phần mềm, Up nhạc ngon hơn, đem Up phim Remux các kiểu có vẻ toang :v
     
    Chỉnh sửa cuối: 4/6/20
  12. zinzuno

    zinzuno Uploader

    Tham gia ngày:
    27/9/10
    Bài viết:
    32,307
    Đã được cảm ơn:
    442,580
    host này mún anh em mình chơi phim tải từ mấy web online ấy, 1 phim có chưa tới 1GB...
     
    files.pw cảm ơn bài này.
  13. Đặng Trung Hiếu

    Đặng Trung Hiếu Well-Known Member

    Tham gia ngày:
    23/7/18
    Bài viết:
    406
    Đã được cảm ơn:
    1,041
    Giới tính:
    Nam
    Ở HDVN mà chơi hàng đó rồi ai độ :v
    Khó lắm, bỏ đi bác
     

Chia sẻ trang này