[Other] Blue - The Platinum Collection 3CD (2006) [WAV+CUE]

Thảo luận trong 'Nhạc quốc tế' bắt đầu bởi tommyking, 30/5/14.

  1. tommyking

    tommyking Well-Known Member

    Tham gia ngày:
    24/4/09
    Bài viết:
    873
    Đã được cảm ơn:
    15,256
    Giới tính:
    Nam
    Blue - The Platinum Collection 3CD

    [​IMG]
    [​IMG]
    Tracklist :
    CD1 - The Great Tracks
    01. Back Some Day (4:03)

    02. Make It Happen (3:14)

    03. Girl I'll Never Understand (3:26)
    04. Long Time (4:15)
    05. Made For Loving You (3:26)
    06. Elements (3:41)
    07. The Gift (4:55)
    08. Flexin' (4:01)
    09. Ain't Got You (3:36)
    10. Stand Up (3:36)
    11. Taste It (3:33)
    12. When Summer's Gone (4:12)
    13. Alive (3:40)
    14. Walk Away (3:43)
    15. How's A Man Supposed To Change? (4:04)
    16. No Goodbyes (4:36)

    CD2 - The Hits

    01. All Rise (3:46)
    02. Too Close (3:47)
    03. If You Come Back (3:24)
    04. Fly By II (3:50)
    05. One Love (3:25)
    06. Sorry Seems To Be The Hardest Word (Feat. Elton John) (3:29)
    07. U Make Me Wanna (3:42)
    08. Guilty (3:47)
    09. Breathe Easy (3:41)
    10. Bubblin' (Feat. L.A.D.E.) (3:45)
    11. Curtain Falls (4:04)
    12. Get Down On It (Feat. Kool & The Gang And Lil Kim) (4:37)
    13. Love At First Sight (3:57)
    14. Best In Me (2004) (3:13)
    15. Only Words I Know (Italian Version) (3:58)

    CD3 - Live!

    01. Back To You (3:41)
    02. Fly By (4:03)
    03. Guilty (4:45)
    04. Sorry Seems To Be The Hardest Word (3:50)
    05. Rock The Night (3:41)
    06. Bubblin' (3:02)
    07. If You Come Back (5:25)
    08. Breathe Easy (4:37)
    09. Alive (5:00)
    10. Jackson Medley (Thriller, Beat It, Smooth Criminal) (7:55)
    11. U Make Me Wanna (4:25)
    12. When Summer's Gone (4:14)
    13. Taste It (4:04)
    14. All Rise (3:55)
    15. Too Close (4:19)
    16. One Love (4:06)

    Link tải phim
    Download:

    Nhấn nút Cảm ơn (dưới chân bài) để thấy link!

    Exact Audio Copy V1.0 beta 3 from 29. August 2011

    EAC 抓取日志文件从29. 五月 2014, 15:06

    Blue / The Platinum Collection

    使用驱动器 :HL-DT-STDVDRWBD CH20N Adapter: 0 ID: 1

    读取模式 : 可靠Secure
    使用精确流 : 是
    清空音频缓存 : 是
    使用 C2 指示器 : 否

    读取偏移校正: : 0
    读取 Lead-In 和 Lead-Out : 否
    用静音填充抓取中丢失偏移的采样 : 是
    去除首尾静音块 : 否
    在CRC 计算中使用了空样本 : 是
    已用接口 : Win NT 及 2000 本地 Win32 接口

    所用输出模式: : 内部 WAV 函数
    样本格式 : 44.100 Hz; 16 Bit; 立体声


    已抓取 CD 的 TOC

    音轨 | 起始 | 长度 | 起始扇区 | 结束扇区
    --------------------------------------------
    1 | 0:00.00 | 4:02.55 | 0 | 18204
    2 | 4:02.55 | 3:14.32 | 18205 | 32786
    3 | 7:17.12 | 3:25.72 | 32787 | 48233
    4 | 10:43.09 | 4:14.55 | 48234 | 67338
    5 | 14:57.64 | 3:25.49 | 67339 | 82762
    6 | 18:23.38 | 3:40.66 | 82763 | 99328
    7 | 22:04.29 | 4:54.70 | 99329 | 121448
    8 | 26:59.24 | 4:01.14 | 121449 | 139537
    9 | 31:00.38 | 3:35.50 | 139538 | 155712
    10 | 34:36.13 | 3:36.15 | 155713 | 171927
    11 | 38:12.28 | 3:32.51 | 171928 | 187878
    12 | 41:45.04 | 4:12.09 | 187879 | 206787
    13 | 45:57.13 | 3:39.59 | 206788 | 223271
    14 | 49:36.72 | 3:42.53 | 223272 | 239974
    15 | 53:19.50 | 4:04.19 | 239975 | 258293
    16 | 57:23.69 | 3:55.74 | 258294 | 275992
    17 | 63:51.68 | 10:06.07 | 287393 | 332849


    范围状态及错误

    已选择范围

    文件名 C:\Users\we1\Desktop\Blue - The Platinum Collection.wav

    可疑位置 0:09:46

    峰值电平 99.5 %
    抓取速度 1.7 X
    范围质量 99.9 %
    复制 CRC 43263065
    复制结束

    出现错误

    状态报告结尾

    ---- CUETools DB Plugin V2.1.3

    [CTDB TOCID: 1LpizlYKqRcy9dhXizkWKkQpZEg-] disk not present in database, Submit result: 1LpizlYKqRcy9dhXizkWKkQpZEg- has been uploaded
     
  2. Tranngochiep1234

    Tranngochiep1234 Well-Known Member

    Tham gia ngày:
    1/6/17
    Bài viết:
    517
    Đã được cảm ơn:
    684
    Giới tính:
    Nam
    Bác oi cho xin lai link này. Cam on
     
  3. Devil_Woman

    Devil_Woman Huyền Thoại Thành viên BQT

    Tham gia ngày:
    20/9/10
    Bài viết:
    21,452
    Đã được cảm ơn:
    371,670
    Đợi nhé...
     
    Tranngochiep1234 cảm ơn bài này.
  4. Devil_Woman

    Devil_Woman Huyền Thoại Thành viên BQT

    Tham gia ngày:
    20/9/10
    Bài viết:
    21,452
    Đã được cảm ơn:
    371,670
    Bản FLAC

    Nhấn nút Cảm ơn (dưới chân bài) để thấy link!
     

Chia sẻ trang này