[Google Drive] BBC Seven Ages of Starlight (2012) ViE 1080p BluRay x264-c0kE - Cuộc Đời Thăng Trầm Của Những Vì Sao

Thảo luận trong 'Phim Tài Liệu - Thuyết Minh' bắt đầu bởi hoangcuong_0525, 27/12/20.

  1. hoangcuong_0525

    hoangcuong_0525 Well-Known Member

    Tham gia ngày:
    22/9/11
    Bài viết:
    1,247
    Đã được cảm ơn:
    3,612
    Nghề nghiệp:
    Sinh viên
    Nơi ở:
    Hà Nội
    BBC.Seven.Ages.of.Starlight.2012.ViE.1080p.BluRay.x264-c0kE
    Cuộc Đời Thăng Trầm Của Những Vì Sao

    [​IMG]

    Mã:
    General
    Unique ID                                : 234839339608391645991808367438708162296 (0xB0AC69606651E56182F15A169C6D3EF8)
    Complete name                            : D:\1. IDM\BBC.Seven.Ages.of.Starlight.2012.ViE.1080p.BluRay.x264-c0kE.mkv
    Format                                   : Matroska
    Format version                           : Version 4
    File size                                : 3.97 GiB
    Duration                                 : 1 h 32 min
    Overall bit rate                         : 6 158 kb/s
    Encoded date                             : UTC 2020-12-27 05:07:02
    
    
    Writing application                      : mkvmerge v6.0.0 ('Coming Up For Air') built on Jan 20 2013 09:52:00
    Writing library                          : libebml v1.3.0 + libmatroska v1.4.0
    Video
    ID                                       : 2
    Format                                   : AVC
    Format/Info                              : Advanced Video Codec
    Format profile                           : [email protected]
    Format settings                          : CABAC / 4 Ref Frames
    Format settings, CABAC                   : Yes
    Format settings, Reference frames        : 4 frames
    Codec ID                                 : V_MPEG4/ISO/AVC
    Duration                                 : 1 h 32 min
    Bit rate                                 : 5 203 kb/s
    Width                                    : 1 920 pixels
    Height                                   : 1 080 pixels
    Display aspect ratio                     : 16:9
    Frame rate mode                          : Constant
    Frame rate                               : 25.000 FPS
    Color space                              : YUV
    Chroma subsampling                       : 4:2:0
    Bit depth                                : 8 bits
    Scan type                                : Progressive
    Bits/(Pixel*Frame)                       : 0.100
    Stream size                              : 3.36 GiB (84%)
    Writing library                          : x264 core 140 r2377 1ca7bb9
    Encoding settings                        : cabac=1 / ref=4 / deblock=1:-3:-3 / analyse=0x3:0x113 / me=umh / subme=7 / psy=1 / psy_rd=1.00:0.00 / mixed_ref=1 / me_range=16 / chroma_me=1 / trellis=1 / 8x8dct=1 / cqm=0 / deadzone=21,11 / fast_pskip=0 / chroma_qp_offset=-2 / threads=8 / lookahead_threads=1 / sliced_threads=0 / nr=0 / decimate=1 / interlaced=0 / bluray_compat=0 / constrained_intra=0 / bframes=3 / b_pyramid=2 / b_adapt=1 / b_bias=0 / direct=3 / weightb=1 / open_gop=0 / weightp=2 / keyint=250 / keyint_min=25 / scenecut=40 / intra_refresh=0 / rc_lookahead=40 / rc=crf / mbtree=1 / crf=20.0 / qcomp=0.60 / qpmin=0 / qpmax=69 / qpstep=4 / ip_ratio=1.40 / aq=1:1.00
    Language                                 : English
    Default                                  : Yes
    Forced                                   : No
    Audio #1
    ID                                       : 1
    Format                                   : AC-3
    Format/Info                              : Audio Coding 3
    Commercial name                          : Dolby Digital
    Codec ID                                 : A_AC3
    Duration                                 : 1 h 32 min
    Bit rate mode                            : Constant
    Bit rate                                 : 448 kb/s
    Channel(s)                               : 2 channels
    Channel layout                           : L R
    Sampling rate                            : 48.0 kHz
    Frame rate                               : 31.250 FPS (1536 SPF)
    Compression mode                         : Lossy
    Stream size                              : 296 MiB (7%)
    Title                                    : Thuyết Minh l Vinadot From sc0kE@Planet
    Language                                 : Vietnamese
    Service kind                             : Complete Main
    Default                                  : Yes
    Forced                                   : Yes
    Audio #2
    ID                                       : 3
    Format                                   : AC-3
    Format/Info                              : Audio Coding 3
    Commercial name                          : Dolby Digital
    Codec ID                                 : A_AC3
    Duration                                 : 1 h 32 min
    Bit rate mode                            : Constant
    Bit rate                                 : 384 kb/s
    Channel(s)                               : 2 channels
    Channel layout                           : L R
    Sampling rate                            : 48.0 kHz
    Frame rate                               : 31.250 FPS (1536 SPF)
    Compression mode                         : Lossy
    Stream size                              : 254 MiB (6%)
    Title                                    : AC3 eng
    Language                                 : English
    Service kind                             : Complete Main
    Default                                  : No
    Forced                                   : No
    [​IMG] [​IMG] [​IMG] [​IMG] [​IMG] [​IMG] [​IMG] [​IMG]
    Link Download
    Nhấn nút Cảm ơn (dưới chân bài) để thấy link!

    Link tải từ NetHD, Audio do anh vinadot (NetHD) cung cấp
     
  2. tlamhp

    tlamhp Well-Known Member

    Tham gia ngày:
    23/7/12
    Bài viết:
    1,088
    Đã được cảm ơn:
    1,150
    Giới tính:
    Nam
    Nghề nghiệp:
    Housekeeper
    Nơi ở:
    Oakland CA USA

Chia sẻ trang này