[Fshare] BBC Africa 2013 ViE 1080p BluRay x264-c0kE l Thiên Nhiên Hoang Dã châu Phi l Thuyết Minh

Thảo luận trong 'Phim Tài Liệu - Thuyết Minh' bắt đầu bởi cuong_7694, 30/12/20.

  1. cuong_7694

    cuong_7694 Well-Known Member

    Tham gia ngày:
    8/9/12
    Bài viết:
    1,172
    Đã được cảm ơn:
    1,955
    Nơi ở:
    Hà Nội
    [​IMG]

    Châu Phi, nơi cuối cùng trên thế giới với vẻ đẹp hùng vĩ của thiên nhiên còn ngự trị. Châu Phi, nơi mà còn người tưởng chừng đã hiểu rõ nhưng ẩn chứa trong nó còn bao điều kỳ thú, bao bất ngờ mà con người chưa khám phá hết. Với bộ phim tài liệu Châu Phi, nhóm làm phim về Châu Phi của đài BBC đã đem đến cho người xem những cái nhìn mới lạ, những cảnh quay hoành tráng hùng vĩ, những khám phá mới nhất về thế giới hoang dã ở Châu Phi, những thước phim ngàn năm có một. Với siêu phẩm tài liệu về thiên nhiên hoang dã như thế này, Phụ Đề Việt không thể đứng ngoài cuộc. Hãy cùng chúng tôi tận hưởng những hình ảnh đẹp lung linh, khám phá những điều mới lạ về Châu Phi kỳ thú.​



    ep1..........: Kalahari - Hoang Mạc Kalahari
    ep2..........: Savannah - Thảo Nguyên Savannah
    ep3..........: Congo - Congo
    ep4..........: Cape - Mũi Hảo Vọng

    ep5..........: Sahara - Sa Mạc Sahara

    ep6..........: The Future - Tương lai Châu Phi​

    Complete name : BBC.Africa.2013.S01E01.Kalahari.ViE.1080p.BluRay.DTS.x264-c0kE
    Format : Matroska
    Format version : Version 4 / Version 2
    File size : 10.5 GiB
    Duration : 57mn 54s
    Overall bit rate : 25.9 Mbps
    Encoded date : UTC 2020-12-30 06:10:48
    Writing application : mkvmerge v6.0.0 ('Coming Up For Air') built on Jan 20 2013 09:52:00
    Writing library : libebml v1.3.0 + libmatroska v1.4.0

    Video
    ID : 2
    Format : AVC
    Format/Info : Advanced Video Codec
    Format profile : [email protected]
    Format settings, CABAC : Yes
    Format settings, ReFrames : 4 frames
    Codec ID : V_MPEG4/ISO/AVC
    Duration : 57mn 54s
    Bit rate : 23.0 Mbps
    Width : 1 920 pixels
    Height : 1 080 pixels
    Display aspect ratio : 16:9
    Frame rate mode : Constant
    Frame rate : 25.000 fps
    Color space : YUV
    Chroma subsampling : 4:2:0
    Bit depth : 8 bits
    Scan type : Progressive
    Bits/(Pixel*Frame) : 0.444
    Stream size : 9.09 GiB (87%)
    Title : x264
    Writing library : x264 core 129 r2245 bc13772
    Encoding settings : cabac=1 / ref=4 / deblock=1:-3:-3 / analyse=0x3:0x113 / me=umh / subme=11 / psy=1 / psy_rd=1.00:0.00 / mixed_ref=1 / me_range=48 / chroma_me=1 / trellis=2 / 8x8dct=1 / cqm=0 / deadzone=21,11 / fast_pskip=0 / chroma_qp_offset=-2 / threads=6 / lookahead_threads=1 / sliced_threads=0 / nr=0 / decimate=0 / interlaced=0 / bluray_compat=0 / constrained_intra=0 / bframes=8 / b_pyramid=2 / b_adapt=2 / b_bias=0 / direct=3 / weightb=1 / open_gop=0 / weightp=2 / keyint=250 / keyint_min=25 / scenecut=40 / intra_refresh=0 / rc_lookahead=250 / rc=2pass / mbtree=1 / bitrate=23000 / ratetol=1.0 / qcomp=0.70 / qpmin=0 / qpmax=69 / qpstep=4 / cplxblur=20.0 / qblur=0.5 / vbv_maxrate=38000 / vbv_bufsize=30000 / nal_hrd=none / ip_ratio=1.40 / aq=1:1.10
    Language : English
    Default : Yes
    Forced : No

    Audio #1
    ID : 1
    Format : DTS
    Format/Info : Digital Theater Systems
    Mode : 16
    Format settings, Endianness : Big
    Codec ID : A_DTS
    Duration : 57mn 54s
    Bit rate mode : Constant
    Bit rate : 1 413 Kbps
    Channel count : 2 channels
    Channel positions : Front: L R
    Sampling rate : 48.0 KHz
    Bit depth : 16 bits
    Compression mode : Lossy
    Stream size : 585 MiB (5%)
    Title : Thuyết Minh l Vinadot@Present l NetHD.Org l c0kE@Team
    Language : Vietnamese
    Default : Yes
    Forced : Yes

    Audio #2
    ID : 3
    Format : DTS
    Format/Info : Digital Theater Systems
    Mode : 16
    Format settings, Endianness : Big
    Codec ID : A_DTS
    Duration : 57mn 54s
    Bit rate mode : Constant
    Bit rate : 1 509 Kbps
    Channel count : 6 channels
    Channel positions : Front: L C R, Side: L R, LFE
    Sampling rate : 48.0 KHz
    Bit depth : 24 bits
    Compression mode : Lossy
    Stream size : 625 MiB (6%)
    Title : DTS 5.1
    Language : English
    Default : No
    Forced : No

    Text
    ID : 4
    Format : UTF-8
    Codec ID : S_TEXT/UTF8
    Codec ID/Info : UTF-8 Plain Text
    Title : English
    Language : English
    Default : No
    Forced : No

     
    Chỉnh sửa cuối: 3/1/21
  2. cuong_7694

    cuong_7694 Well-Known Member

    Tham gia ngày:
    8/9/12
    Bài viết:
    1,172
    Đã được cảm ơn:
    1,955
    Nơi ở:
    Hà Nội
    Cập nhật tập 1
     
  3. hoangcuong_0525

    hoangcuong_0525 Well-Known Member

    Tham gia ngày:
    22/9/11
    Bài viết:
    1,247
    Đã được cảm ơn:
    3,612
    Nghề nghiệp:
    Sinh viên
    Nơi ở:
    Hà Nội
    đặt gạch chờ các tập tiếp theo từ anh :)
     
  4. ngoctho100388

    ngoctho100388 Well-Known Member

    Tham gia ngày:
    25/6/09
    Bài viết:
    1,051
    Đã được cảm ơn:
    1,667
    Giới tính:
    Nam
    Nghề nghiệp:
    https://kenhsachnoi.com/
    Nơi ở:
    Việt Nam
    lót dép hóng <3
    thanks thớt
     
  5. cuong_7694

    cuong_7694 Well-Known Member

    Tham gia ngày:
    8/9/12
    Bài viết:
    1,172
    Đã được cảm ơn:
    1,955
    Nơi ở:
    Hà Nội
  6. cuong_7694

    cuong_7694 Well-Known Member

    Tham gia ngày:
    8/9/12
    Bài viết:
    1,172
    Đã được cảm ơn:
    1,955
    Nơi ở:
    Hà Nội
    hoangcuong_0525 cảm ơn bài này.
  7. cuong_7694

    cuong_7694 Well-Known Member

    Tham gia ngày:
    8/9/12
    Bài viết:
    1,172
    Đã được cảm ơn:
    1,955
    Nơi ở:
    Hà Nội
    Cập nhật Tập 3
     
    Chỉnh sửa cuối: 1/1/21
    hoangcuong_0525 cảm ơn bài này.
  8. cuong_7694

    cuong_7694 Well-Known Member

    Tham gia ngày:
    8/9/12
    Bài viết:
    1,172
    Đã được cảm ơn:
    1,955
    Nơi ở:
    Hà Nội
    Cập nhật tập 4
     
    hoangcuong_0525 cảm ơn bài này.
  9. cuong_7694

    cuong_7694 Well-Known Member

    Tham gia ngày:
    8/9/12
    Bài viết:
    1,172
    Đã được cảm ơn:
    1,955
    Nơi ở:
    Hà Nội
    Cập nhật tập 5
     
  10. cuong_7694

    cuong_7694 Well-Known Member

    Tham gia ngày:
    8/9/12
    Bài viết:
    1,172
    Đã được cảm ơn:
    1,955
    Nơi ở:
    Hà Nội
    Cập nhật tập 6 - END
     
    ngoctho100388 and hoatieu2 like this.
  11. legendhaiduong

    legendhaiduong Well-Known Member

    Tham gia ngày:
    30/3/13
    Bài viết:
    377
    Đã được cảm ơn:
    2,818
    Giới tính:
    Nam
    tuyệt vời, tks bác
     
  12. ngoctho100388

    ngoctho100388 Well-Known Member

    Tham gia ngày:
    25/6/09
    Bài viết:
    1,051
    Đã được cảm ơn:
    1,667
    Giới tính:
    Nam
    Nghề nghiệp:
    https://kenhsachnoi.com/
    Nơi ở:
    Việt Nam
    Fshare chưa lên ah bác
     
  13. cuong_7694

    cuong_7694 Well-Known Member

    Tham gia ngày:
    8/9/12
    Bài viết:
    1,172
    Đã được cảm ơn:
    1,955
    Nơi ở:
    Hà Nội
    done!
     
    ngoctho100388 and hoatieu2 like this.
  14. ngoctho100388

    ngoctho100388 Well-Known Member

    Tham gia ngày:
    25/6/09
    Bài viết:
    1,051
    Đã được cảm ơn:
    1,667
    Giới tính:
    Nam
    Nghề nghiệp:
    https://kenhsachnoi.com/
    Nơi ở:
    Việt Nam
    thanks bác
     

Chia sẻ trang này