[Audio Singer/Songwriter) DTS chuẩn Bluray ] DTS Demo 2013 2D.3D BluRay.1080p.AVC.DTS-HDMA 5.1 Colle

Thảo luận trong 'Bluray nguyên gốc' bắt đầu bởi tonytruong, 8/12/13.

  1. tonytruong

    tonytruong Super Moderators

    Tham gia ngày:
    26/11/09
    Bài viết:
    22,402
    Đã được cảm ơn:
    14,463
    Giới tính:
    Nam
    Nơi ở:
    Việt Nam
    [Audio Singer/Songwriter) DTS chuẩn Bluray ] DTS Demo 2013 2D.3D BluRay.1080p.AVC.DTS-HDMA 5.1-7.1 Collections

    Đây là bộ Nhạc sưu tầm được, Thể loại Singer/Songwriter) định dạng DTS Bluray rất hay, xin chia sẻ đến với Anh em, mình sẽ up dần dần từ Disc,1 đến Disc,9......, Chúc anh em thưởng thức, thư giãn,vui vẻ vào những ngày làm việc mệt mỏi nhé. :)

    [​IMG]

    =============================================================================

    DTS Blu-ray Music Demo Disc 1 2013 1080i Blu-ray AVC DTS-HD MA 5.1

    [​IMG]

    Mã:
    [SIZE=1]Reference quality 5.1/7.1 Dolby TrueHD Music Demo Disc (compatible with normal Dolby Digital, too)
    Great for testing your surround system, with this demo you really see how good your system can be! Even low budget systems sounds good with these tracks!
    BDMV and Certificate folders for burning on BD-25,or for playing with for example Arcsoft Total Media Theatre or other BD PC players. VLC Player also plays individual tracks in BDMV/STREAM folder.
    Without any copy or regional protection. With Title Menu and Auto-Loop function for In-store demo. Cover and Disc Label for printing included.
    Oh, and the video is of course in Full HD 1080 uncompressed quality![/SIZE]
    [​IMG]

    Mã:
    Includes some of the greatest 5.1 sounding live performances and 7.1 video clips:
    
    
    Celine Dion - The Power Of Love
    Roy Orbison - Only The Lonely
    Michael Buble - Fever
    Jane Monheit & J. Pizzarelli - They Can't Take That  Away From Me
    Heart - Alone
    Simon & Garfunkel - Sounds Of Silence
    A.Bocelli & S.Brightman - Time To Say Goodbye
    Sting - Englishman in New York
    Dave Matthews & Tim Reynolds - Stay Or Leave
    Eagles - Hotel California
    Robbie Williams - Mack The Knife
    Diana Krall - The Boy From Ipanema
    Legends Of Jazz - The Panther
    Bon Jovi - Living On A Prayer
    U 2 - Stuck In A Moment You
    The Police - Every breath You Take
    Kings Of Leon - Sex On Fire
    Linkin Park - Shadow Of The Day
    Pink - Please Don't Leave Me
    Beyonce - Single Ladies
    Michael Bolton - How Can We Be Lovers
    Phil Collins - True Colours
    Gloriana - Wild At Heart  7.1
    B.T.  - 1.618   7.1

    [​IMG]
    Mã:
    DISC INFO:
    Disc Title:     DTS MUSIC DEMO 1
    Disc Size:      24,929,354,644 bytes
    Protection:     AACS
    BD-Java:        No
    BDInfo:         0.5.8
    PLAYLIST REPORT:
    Name:                   00014.MPLS
    Length:                 0:06:11.287 (h:m:s.ms)
    Size:                   1,265,965,056 bytes
    Total Bitrate:          27.28 Mbps
    VIDEO:
    Codec                   Bitrate             Description 
    -----                   -------             ----------- 
    VC-1 Video              20597 kbps          1080p / 23.976 fps / 16:9 / Advanced Profile 3
    AUDIO:
    Codec                           Language        Bitrate         Description 
    -----                           --------        -------         ----------- 
    DTS-HD Master Audio             Undetermined    5258 kbps       5.1 / 48 kHz / 5258 kbps / 24-bit (DTS Core: 5.1 / 48 kHz / 1509 kbps / 24-bit)
    SUBTITLES:
    Codec                           Language        Bitrate         Description 
    -----                           --------        -------         ----------- 
    Presentation Graphics           Undetermined    1.752 kbps                 
    FILES:
    Name            Time In         Length          Size            Total Bitrate
    ----            -------         ------          ----            -------------
    00014.M2TS      0:00:00.000     0:06:11.287     1,265,965,056   27,274     
    CHAPTERS:
    Number          Time In         Length          Avg Video Rate  Max 1-Sec Rate  Max 1-Sec Time  Max 5-Sec Rate  Max 5-Sec Time  Max 10Sec Rate  Max 10Sec Time  Avg Frame Size  Max Frame Size  Max Frame Time
    ------          -------         ------          --------------  --------------  --------------  --------------  --------------  --------------  --------------  --------------  --------------  --------------
    1               0:00:00.000     0:06:11.287     20,599 kbps     37,568 kbps     00:04:34.232    29,904 kbps     00:01:36.221    26,745 kbps     00:01:36.221    107,383 bytes   456,134 bytes   00:00:38.038
    STREAM DIAGNOSTICS:
    File            PID             Type            Codec           Language                Seconds                 Bitrate                 Bytes           Packets     
    ----            ---             ----            -----           --------                --------------          --------------          -------------   -----       
    00014.M2TS      4113 (0x1011)   0xEA            VC-1                                    371.288                 20,599                  956,031,469     5,201,172  
    00014.M2TS      4352 (0x1100)   0x86            DTS-HD MA       und (Undetermined)      371.288                 5,258                   244,036,444     1,384,106  
    00014.M2TS      4608 (0x1200)   0x90            PGS             und (Undetermined)      371.288

    Dung Lượng: 23.2GB

    fshare.vn.png

    Nhấn nút Cảm ơn (dưới chân bài) để thấy link!


    Pass: TonytruongHDSG​

    Nguồn: hdvnbits

    =============================================================================

    DTS Blu-ray Music Demo Disc 2 2013 1080i Blu-ray AVC DTS-HD MA 5.1

    ONLOXqx.jpg
    tEUre2G.jpg
    vaRXsnA.jpg

    Mã:
    Reference quality 5.1 DTS-HD Master Audio Blu-Ray (compatible with normal DTS, too)
    Great for testing your surround system, with this demo you really see how good your system can be! Even low budget systems sounds good with these tracks!
    BDMV and Certificate folders for burning on BD-25,or for playing with for example Arcsoft Total Media Theatre or other BD PC players. VLC Player also plays individual tracks in BDMV/STREAM folder.
    Without any copy or regional protection. With Title Menu and Auto-Loop function for In-store demo. Cover and Disc Label for printing included.
    Oh, and video is of course in Full HD 1080 uncompressed quality!
    [​IMG]

    Mã:
    Includes some of the greatest 5.1 sounding live performances and videos:
    Julieta Venegas - Limón y Sal
    Andrea Bocelli - Vivo Per Lei
    Celine Dion - Alone
    Seal - Stand By Me
    Phil Collins - Papa Was A Rolling Stone
    Babyface & Kevon Edmonds -  I Swear
    Robbie Williams & Nicole Kidman - Something Stupid
    Adele - Rolling In The Deep
    The Pogues - Fiesta
    The Pretenders - Boots Of Chinese Plastic
    Toto - Africa
    Eagles - Life In The Fast Lane
    Peter Gabriel - Solsbury Hill
    Pink - Who Knew
    Green Day - Boulevard Of Broken Dreams
    Porcupine Tree - Wedding Nails
    Amy Winehouse - Back To Black
    Madonna - Miles Away
    Black Eyed Peas - Imma Be/Rock That Body
    Rooney - I Can`t Get Enough  7.1
    Rusty Truck - Cold Ground  7.1
    Chris Isaak - Wicked Game
    Diane Birch - Valentino
    Talking Heads - There Must Be The Place (Naive Melody)
    Verdi  IL Trovatore - Gypsy Chorus
    Edvard Grieg - Concerto for Piano & Orchestra  7.1 ( Audio only )
    Depeche Mode - Leave In Silence ( Audio only )
    [​IMG]
    Mã:
    DISC INFO:
    Disc Title:     DTS Music Demo 2
    Disc Size:      24,344,760,511 bytes
    Protection:     AACS
    BD-Java:        No
    BDInfo:         0.5.8
    PLAYLIST REPORT:
    Name:                   00005.MPLS
    Length:                 0:07:28.948 (h:m:s.ms)
    Size:                   1,472,040,960 bytes
    Total Bitrate:          26.23 Mbps
    VIDEO:
    Codec                   Bitrate             Description 
    -----                   -------             ----------- 
    MPEG-4 AVC Video        19996 kbps          1080i / 29.970 fps / 16:9 / High Profile 4.0
    AUDIO:
    Codec                           Language        Bitrate         Description 
    -----                           --------        -------         ----------- 
    DTS-HD Master Audio             English         4854 kbps       5.1 / 48 kHz / 4854 kbps / 24-bit (DTS Core: 5.1 / 48 kHz / 1509 kbps / 24-bit)
    SUBTITLES:
    Codec                           Language        Bitrate         Description 
    -----                           --------        -------         ----------- 
    Presentation Graphics           srb             1.528 kbps                 
    FILES:
    Name            Time In         Length          Size            Total Bitrate
    ----            -------         ------          ----            -------------
    00005.M2TS      0:00:00.000     0:07:28.948     1,472,040,960   26,229     
    CHAPTERS:
    Number          Time In         Length          Avg Video Rate  Max 1-Sec Rate  Max 1-Sec Time  Max 5-Sec Rate  Max 5-Sec Time  Max 10Sec Rate  Max 10Sec Time  Avg Frame Size  Max Frame Size  Max Frame Time
    ------          -------         ------          --------------  --------------  --------------  --------------  --------------  --------------  --------------  --------------  --------------  --------------
    1               0:00:00.000     0:07:28.948     19,997 kbps     27,433 kbps     00:05:43.342    21,506 kbps     00:04:12.452    20,933 kbps     00:05:34.967    83,398 bytes    343,271 bytes   00:05:43.376

    Dung lượng: 22.68GB

    fshare.vn.png

    Nhấn nút Cảm ơn (dưới chân bài) để thấy link!


    Pass: TonytruongHDSG​

    Nguồn: ST- hbinhlove2003

    =============================================================================

    DTS Blu-ray Music Demo Disc 3 2013 1080i Blu-ray AVC DTS-HD MA 5.1

    qAHXULq.jpg
    Ej8A39a.jpg
    ulzTaGn.jpg

    Mã:
    Celine Dion - A New Day Has Come
    Dave Matthews & Tim Reynolds - Crash Into Me
    The Police - Every Breath You Take
    Julieta Venegas & Marisa Monte - Ilusión
    Roy Orbison - Blue Bayou
    Simply Red - For Your Babies
    Lady Antebellum - Need You Now
    Elton John - Don’t Let The Sun Go Down On Me
    Michael Bublé - Save The Last Dance For Me
    A-ha - Crying In The Rain
    Pink - I Don’t Believe You
    Beyonce - Halo
    Andrea Bocelli - Melodramma
    Dido - White Flag
    Billy Joel - My Life
    Brand New Opry Vol.1 - Lowlands
    Natalie Cole & R. Studdard - When I Fall In Love
    George Michael - Father Figure
    Cliff Richard - Somewhere Over The Rainbow
    Eric Clapton & Steve Winwood - Can’t Find My Way Home
    Michael Bolton - Hope It’s Too Late
    Take That - Patience
    Foreigner - I Want To Know What Love Is
    Heart - Battle Of Evermore
    David Garrett - Asturias
    André Rieu - An der sch?nen blauen Donau
    [​IMG]

    Mã:
    Disc Title: DTS Music Demo 3
    Disc Size: 24,312,219,669 bytes
    Protection: AACS
    BD-Java: No
    Playlist: 00000.MPLS
    Size: 198,549,504 bytes
    Length: 0:00:49.045
    Total Bitrate: 32.39 Mbps
    Video: MPEG-4 AVC Video / 21733 kbps / 1080p / 23.976 fps / 16:9 / High Profile 4.1
    Audio: Undetermined / DTS-HD Master Audio / 7.1 / 96 kHz / 9015 kbps / 24-bit (DTS Core: 5.1 / 48 kHz / 1509 kbps / 24-bit)
    Disc Title: DTS Music Demo 3
    Disc Size: 24,312,219,669 bytes
    Protection: AACS
    BD-Java: No
    Playlist: 00001.MPLS
    Size: 1,141,671,936 bytes
    Length: 0:04:35.508
    Total Bitrate: 33.15 Mbps
    Video: VC-1 Video / 23109 kbps / 1080i / 29.970 fps / 16:9 / Advanced Profile 3
    Audio: Undetermined / DTS-HD Master Audio / 5.1 / 96 kHz / 8371 kbps / 24-bit (DTS Core: 5.1 / 48 kHz / 1509 kbps / 24-bit)
    Subtitle: Undetermined / 2.558 kbps
    Disc Title: DTS Music Demo 3
    Disc Size: 24,312,219,669 bytes
    Protection: AACS
    BD-Java: No
    Playlist: 00002.MPLS
    Size: 1,153,297,536 bytes
    Length: 0:05:47.805
    Total Bitrate: 26.53 Mbps
    Video: VC-1 Video / 20241 kbps / 1080p / 23.976 fps / 16:9 / Advanced Profile 3
    Audio: Undetermined / DTS-HD Master Audio / 5.1 / 48 kHz / 4898 kbps / 24-bit (DTS Core: 5.1 / 48 kHz / 1509 kbps / 24-bit)
    Subtitle: Undetermined / 2.187 kbps
    Disc Title: DTS Music Demo 3
    Disc Size: 24,312,219,669 bytes
    Protection: AACS
    BD-Java: No
    Playlist: 00003.MPLS
    Size: 1,284,151,296 bytes
    Length: 0:05:37.909
    Total Bitrate: 30.40 Mbps
    Video: VC-1 Video / 20466 kbps / 1080i / 29.970 fps / 16:9 / Advanced Profile 3
    Audio: Undetermined / DTS-HD Master Audio / 5.1 / 96 kHz / 8377 kbps / 24-bit (DTS Core: 5.1 / 48 kHz / 1509 kbps / 24-bit)
    Subtitle: Undetermined / 2.408 kbps
    Disc Title: DTS Music Demo 3
    Disc Size: 24,312,219,669 bytes
    Protection: AACS
    BD-Java: No
    Playlist: 00004.MPLS
    Size: 814,095,360 bytes
    Length: 0:03:46.593
    Total Bitrate: 28.74 Mbps
    Video: MPEG-4 AVC Video / 22194 kbps / 1080i / 29.970 fps / 16:9 / High Profile 4.1
    Audio: Undetermined / DTS-HD Master Audio / 5.1 / 48 kHz / 5061 kbps / 24-bit (DTS Core: 5.1 / 48 kHz / 1509 kbps / 24-bit)
    Subtitle: Undetermined / 3.301 kbps
    Disc Title: DTS Music Demo 3
    Disc Size: 24,312,219,669 bytes
    Protection: AACS
    BD-Java: No
    Playlist: 00005.MPLS
    Size: 1,027,817,472 bytes
    Length: 0:03:22.802
    Total Bitrate: 40.54 Mbps
    Video: MPEG-4 AVC Video / 30342 kbps / 1080i / 29.970 fps / 16:9 / High Profile 4.1
    Audio: Undetermined / DTS-HD Master Audio / 5.1 / 96 kHz / 8220 kbps / 24-bit (DTS Core: 5.1 / 48 kHz / 1509 kbps / 24-bit)
    Subtitle: Undetermined / 3.565 kbps
    Disc Title: DTS Music Demo 3
    Disc Size: 24,312,219,669 bytes
    Protection: AACS
    BD-Java: No
    Playlist: 00006.MPLS
    Size: 684,337,152 bytes
    Length: 0:04:41.173
    Total Bitrate: 19.47 Mbps
    Video: MPEG-4 AVC Video / 15463 kbps / 1080i / 29.970 fps / 16:9 / High Profile 4.1
    Audio: Undetermined / DTS-HD Master Audio / 5.1 / 48 kHz / 2960 kbps / 16-bit (DTS Core: 5.1 / 48 kHz / 1509 kbps / 16-bit)
    Subtitle: Undetermined / 2.774 kbps
    Disc Title: DTS Music Demo 3
    Disc Size: 24,312,219,669 bytes
    Protection: AACS
    BD-Java: No
    Playlist: 00007.MPLS
    Size: 854,158,080 bytes
    Length: 0:03:32.979
    Total Bitrate: 32.08 Mbps
    Video: MPEG-4 AVC Video / 28056 kbps / 720p / 29.970 fps / 16:9 / High Profile 4.1
    Audio: Undetermined / DTS-HD Master Audio / 5.1 / 48 kHz / 2410 kbps / 16-bit (DTS Core: 5.1 / 48 kHz / 1509 kbps / 16-bit)
    Subtitle: Undetermined / 1.237 kbps
    Disc Title: DTS Music Demo 3
    Disc Size: 24,312,219,669 bytes
    Protection: AACS
    BD-Java: No
    Playlist: 00008.MPLS
    Size: 861,013,824 bytes
    Length: 0:06:04.697
    Total Bitrate: 18.89 Mbps
    Video: MPEG-4 AVC Video / 14961 kbps / 1080i / 29.970 fps / 16:9 / High Profile 4.1
    Audio: Undetermined / DTS-HD Master Audio / 5.1 / 48 kHz / 2853 kbps / 16-bit (DTS Core: 5.1 / 48 kHz / 1509 kbps / 16-bit)
    Subtitle: Undetermined / 2.419 kbps
    Disc Title: DTS Music Demo 3
    Disc Size: 24,312,219,669 bytes
    Protection: AACS
    BD-Java: No
    Playlist: 00009.MPLS
    Size: 725,870,592 bytes
    Length: 0:03:21.067
    Total Bitrate: 28.88 Mbps
    Video: MPEG-4 AVC Video / 22314 kbps / 1080i / 29.970 fps / 16:9 / High Profile 4.1
    Audio: English / DTS-HD Master Audio / 5.1 / 48 kHz / 5072 kbps / 24-bit (DTS Core: 5.1 / 48 kHz / 1509 kbps / 24-bit)
    Subtitle: Undetermined / 3.673 kbps
    Disc Title: DTS Music Demo 3
    Disc Size: 24,312,219,669 bytes
    Protection: AACS
    BD-Java: No
    Playlist: 00010.MPLS
    Size: 604,766,400 bytes
    Length: 0:03:39.252
    Total Bitrate: 22.07 Mbps
    Video: MPEG-4 AVC Video / 0 kbps / 1080i / 29.970 fps / 16:9 / High Profile 4.1
    Audio: Undetermined / DTS-HD Master Audio / 5.1 / 48 kHz / 16-bit (DTS Core: 5.1 / 48 kHz / 1509 kbps / 16-bit)
    Subtitle: Undetermined / 0.000 kbps
    Disc Title: DTS Music Demo 3
    Disc Size: 24,312,219,669 bytes
    Protection: AACS
    BD-Java: No
    Playlist: 00011.MPLS
    Size: 1,331,871,744 bytes
    Length: 0:04:21.260
    Total Bitrate: 40.78 Mbps
    Video: MPEG-4 AVC Video / 33941 kbps / 1080p / 23.976 fps / 16:9 / High Profile 4.1
    Audio: Undetermined / DTS-HD Master Audio / 5.1 / 48 kHz / 4857 kbps / 24-bit (DTS Core: 5.1 / 48 kHz / 1509 kbps / 24-bit)
    Subtitle: Undetermined / 2.624 kbps
    Disc Title: DTS Music Demo 3
    Disc Size: 24,312,219,669 bytes
    Protection: AACS
    BD-Java: No
    Playlist: 00012.MPLS
    Size: 811,905,408 bytes
    Length: 0:02:44.956
    Total Bitrate: 39.38 Mbps
    Video: VC-1 Video / 32386 kbps / 1080p / 23.976 fps / 16:9 / Advanced Profile 3
    Audio: Undetermined / DTS-HD Master Audio / 5.1 / 48 kHz / 5063 kbps / 24-bit (DTS Core: 5.1 / 48 kHz / 1509 kbps / 24-bit)
    Subtitle: Undetermined / 4.527 kbps
    Disc Title: DTS Music Demo 3
    Disc Size: 24,312,219,669 bytes
    Protection: AACS
    BD-Java: No
    Playlist: 00013.MPLS
    Size: 701,915,136 bytes
    Length: 0:04:35.942
    Total Bitrate: 20.35 Mbps
    Video: MPEG-4 AVC Video / 16584 kbps / 1080i / 29.970 fps / 16:9 / High Profile 4.1
    Audio: Undetermined / DTS-HD Master Audio / 5.1 / 48 kHz / 2626 kbps / 16-bit (DTS Core: 5.1 / 48 kHz / 1509 kbps / 16-bit)
    Subtitle: Undetermined / 2.113 kbps
    Disc Title: DTS Music Demo 3
    Disc Size: 24,312,219,669 bytes
    Protection: AACS
    BD-Java: No
    Playlist: 00014.MPLS
    Size: 536,594,304 bytes
    Length: 0:04:19.092
    Total Bitrate: 16.57 Mbps
    Video: MPEG-4 AVC Video / 14994 kbps / 1080p / 29.970 fps / 16:9 / High Profile 4.0
    Audio: Undetermined / DTS Audio / 5.1 / 48 kHz / 768 kbps / 24-bit
    Subtitle: Undetermined / 2.620 kbps
    Disc Title: DTS Music Demo 3
    Disc Size: 24,312,219,669 bytes
    Protection: AACS
    BD-Java: No
    Playlist: 00015.MPLS
    Size: 1,196,126,208 bytes
    Length: 0:04:56.729
    Total Bitrate: 32.25 Mbps
    Video: MPEG-4 AVC Video / 25779 kbps / 1080i / 29.970 fps / 16:9 / High Profile 4.1
    Audio: Undetermined / DTS-HD Master Audio / 5.1 / 48 kHz / 4836 kbps / 24-bit (DTS Core: 5.1 / 48 kHz / 1509 kbps / 24-bit)
    Subtitle: Undetermined / 2.129 kbps
    Disc Title: DTS Music Demo 3
    Disc Size: 24,312,219,669 bytes
    Protection: AACS
    BD-Java: No
    Playlist: 00016.MPLS
    Size: 600,729,600 bytes
    Length: 0:03:04.250
    Total Bitrate: 26.08 Mbps
    Video: MPEG-4 AVC Video / 14158 kbps / 1080i / 29.970 fps / 16:9 / High Profile 4.1
    Audio: Undetermined / DTS-HD Master Audio / 7.1 / 96 kHz / 10546 kbps / 24-bit (DTS Core: 5.1 / 48 kHz / 1509 kbps / 24-bit)
    Subtitle: Undetermined / 1.937 kbps
    Disc Title: DTS Music Demo 3
    Disc Size: 24,312,219,669 bytes
    Protection: AACS
    BD-Java: No
    Playlist: 00017.MPLS
    Size: 1,154,672,640 bytes
    Length: 0:04:27.800
    Total Bitrate: 34.49 Mbps
    Video: MPEG-4 AVC Video / 28286 kbps / 1080i / 29.970 fps / 16:9 / High Profile 4.1
    Audio: English / DTS-HD Master Audio / 5.1 / 48 kHz / 4481 kbps / 24-bit (DTS Core: 5.1 / 48 kHz / 1509 kbps / 24-bit)
    Subtitle: Undetermined / 3.261 kbps
    Disc Title: DTS Music Demo 3
    Disc Size: 24,312,219,669 bytes
    Protection: AACS
    BD-Java: No
    Playlist: 00018.MPLS
    Size: 995,051,520 bytes
    Length: 0:06:16.275
    Total Bitrate: 21.16 Mbps
    Video: MPEG-4 AVC Video / 14996 kbps / 1080i / 29.970 fps / 16:9 / High Profile 4.0
    Audio: English / DTS-HD Master Audio / 5.1 / 48 kHz / 4988 kbps / 24-bit (DTS Core: 5.1 / 48 kHz / 1509 kbps / 24-bit)
    Subtitle: Undetermined / 1.900 kbps
    Disc Title: DTS Music Demo 3
    Disc Size: 24,312,219,669 bytes
    Protection: AACS
    BD-Java: No
    Playlist: 00019.MPLS
    Size: 714,127,488 bytes
    Length: 0:05:01.901
    Total Bitrate: 18.92 Mbps
    Video: MPEG-4 AVC Video / 14995 kbps / 1080i / 29.970 fps / 16:9 / High Profile 4.0
    Audio: English / DTS-HD Master Audio / 5.1 / 48 kHz / 2850 kbps / 16-bit (DTS Core: 5.1 / 48 kHz / 1509 kbps / 16-bit)
    Subtitle: Undetermined / 2.804 kbps
    Disc Title: DTS Music Demo 3
    Disc Size: 24,312,219,669 bytes
    Protection: AACS
    BD-Java: No
    Playlist: 00020.MPLS
    Size: 1,155,182,592 bytes
    Length: 0:05:32.957
    Total Bitrate: 27.76 Mbps
    Video: MPEG-4 AVC Video / 24622 kbps / 1080p / 23.976 fps / 16:9 / High Profile 4.1
    Audio: Undetermined / DTS Audio / 5.1 / 48 kHz / 1509 kbps / 24-bit
    Subtitle: Undetermined / 2.229 kbps
    Disc Title: DTS Music Demo 3
    Disc Size: 24,312,219,669 bytes
    Protection: AACS
    BD-Java: No
    Playlist: 00021.MPLS
    Size: 974,630,016 bytes
    Length: 0:03:45.592
    Total Bitrate: 34.56 Mbps
    Video: MPEG-4 AVC Video / 29959 kbps / 1080i / 29.970 fps / 16:9 / High Profile 4.1
    Audio: English / DTS-HD Master Audio / 5.1 / 48 kHz / 2877 kbps / 16-bit (DTS Core: 5.1 / 48 kHz / 1509 kbps / 16-bit)
    Subtitle: Undetermined / 3.533 kbps
    [​IMG]

    Mã:
    Disc Title: DTS Music Demo 3
    Disc Size: 24,312,219,669 bytes
    Protection: AACS
    BD-Java: No
    Playlist: 00022.MPLS
    Size: 652,055,232 bytes
    Length: 0:03:29.642
    Total Bitrate: 24.88 Mbps
    Video: MPEG-4 AVC Video / 18409 kbps / 1080i / 29.970 fps / 16:9 / High Profile 4.1
    Audio: Undetermined / DTS-HD Master Audio / 5.1 / 48 kHz / 5150 kbps / 24-bit (DTS Core: 5.1 / 48 kHz / 1509 kbps / 24-bit)
    Subtitle: Undetermined / 3.022 kbps
    Disc Title: DTS Music Demo 3
    Disc Size: 24,312,219,669 bytes
    Protection: AACS
    BD-Java: No
    Playlist: 00023.MPLS
    Size: 1,309,261,824 bytes
    Length: 0:06:57.250
    Total Bitrate: 25.10 Mbps
    Video: MPEG-4 AVC Video / 19369 kbps / 1080i / 29.970 fps / 16:9 / High Profile 4.1
    Audio: Undetermined / DTS-HD Master Audio / 5.1 / 48 kHz / 4399 kbps / 24-bit (DTS Core: 5.1 / 48 kHz / 1509 kbps / 24-bit)
    Subtitle: Undetermined / 1.888 kbps
    Disc Title: DTS Music Demo 3
    Disc Size: 24,312,219,669 bytes
    Protection: AACS
    BD-Java: No
    Playlist: 00024.MPLS
    Size: 1,178,271,744 bytes
    Length: 0:05:29.962
    Total Bitrate: 28.57 Mbps
    Video: MPEG-4 AVC Video / 24275 kbps / 1080i / 29.970 fps / 16:9 / High Profile 4.1
    Audio: English / DTS-HD Master Audio / 5.0 / 48 kHz / 2812 kbps / 24-bit (DTS Core: 5.0 / 48 kHz / 1509 kbps / 24-bit)
    Disc Title: DTS Music Demo 3
    Disc Size: 24,312,219,669 bytes
    Protection: AACS
    BD-Java: No
    Playlist: 00025.MPLS
    Size: 370,679,808 bytes
    Length: 0:03:04.984
    Total Bitrate: 16.03 Mbps
    Video: MPEG-4 AVC Video / 9995 kbps / 1080i / 29.970 fps / 16:9 / High Profile 4.0
    Audio: English / DTS-HD Master Audio / 5.1 / 48 kHz / 5080 kbps / 24-bit (DTS Core: 5.1 / 48 kHz / 1509 kbps / 24-bit / DN -4dB)
    Subtitle: English / 3.731 kbps
    Disc Title: DTS Music Demo 3
    Disc Size: 24,312,219,669 bytes
    Protection: AACS
    BD-Java: No
    Playlist: 00026.MPLS
    Size: 1,226,422,272 bytes
    Length: 0:06:28.340
    Total Bitrate: 25.26 Mbps
    Video: MPEG-4 AVC Video / 19995 kbps / 1080i / 29.970 fps / 16:9 / High Profile 4.0
    Audio: German / DTS-HD Master Audio / 5.0 / 48 kHz / 4064 kbps / 24-bit (DTS Core: 5.0 / 48 kHz / 1509 kbps / 24-bit / DN -4dB)
    Subtitle: Undetermined / 2.135 kbps

    Dung lượng: 22.6 GB

    fshare.vn.png

    Nhấn nút Cảm ơn (dưới chân bài) để thấy link!


    Pass: TonytruongHDSG​


    Nguồn: ST- hbinhlove2003

    =============================================================================

    DTS Blu-ray Music Demo Disc 4 2013 1080i Blu-ray AVC DTS-HD MA 5.1

    4seXtGM.jpg
    zioU6T6.jpg
    nY0CB4K.jpg

    Mã:
    OPPO BDP-93 + DENON AVC-A1HDA
    Eagles - Dirty Laundry
    Michael Johns - She's A Beauty & Man In Motion
    Roy Orbison - Oh, Pretty Woman
    Jeff Beck - My Baby Left Me
    Sting - I Hung My Head
    Elisa - Dancing
    Paul Simon with D. Crosby & G. Nash - Here Comes The Sun
    Helene Fischer - Can You Feel The Love Tonight
    Various Artists - My Sweet Lord
    Pretenders - Brass In Pocket
    Dire Straits - Sultans Of Swing
    Deep Purple - Smoke On The Water
    Red Hot Chili Peppers - Snow (Hey Oh)
    Mumford & Sons - Little Lion Man
    Jason Mraz - I'm Yours
    Kanye West - Touch The Sky feat. Lupe Fiasco
    Black Eyed Peas - Don't Lie
    Ti?sto : Deadmau5 - Not Exactly
    Rihanna - Only Girl (In The World)
    Sheryl Crow - I Want You Back
    Take That - Never Forget
    Foreigner - Feels Like A First Time
    Schiller - Playing With Madness
    Steven Wilson - Salvaging
    [​IMG]

    Mã:
    Disc Title: DTS MUSIC DEMO 4
    Disc Size: 25,010,850,972 bytes
    Protection: AACS
    BD-Java: No
    Playlist: 00011.MPLS
    Size: 2,760,868,224 bytes
    Length: 0:10:56.589
    Total Bitrate: 33.64 Mbps
    Video: MPEG-4 AVC Video / 23773 kbps / 1080i / 29.970 fps / 16:9 / High Profile 4.0
    Audio: English / DTS-HD Master Audio / 5.1 / 96 kHz / 8179 kbps / 24-bit (DTS Core: 5.1 / 48 kHz / 1509 kbps / 24-bit)
    Subtitle: English / 0.137 kbps
    Disc Title: DTS MUSIC DEMO 4
    Disc Size: 25,010,850,972 bytes
    Protection: AACS
    BD-Java: No
    Playlist: 00024.MPLS
    Size: 788,453,376 bytes
    Length: 0:08:23.936
    Total Bitrate: 12.52 Mbps
    Video: MPEG-4 AVC Video / 7998 kbps / 1080i / 29.970 fps / 16:9 / High Profile 4.0
    Audio: English / DTS-HD Master Audio / 7.1 / 48 kHz / 3706 kbps / 16-bit (DTS Core: 5.1 / 48 kHz / 1509 kbps / 16-bit)
    Disc Title: DTS MUSIC DEMO 4
    Disc Size: 25,010,850,972 bytes
    Protection: AACS
    BD-Java: No
    Playlist: 00021.MPLS
    Size: 1,286,092,800 bytes
    Length: 0:07:21.140
    Total Bitrate: 23.32 Mbps
    Video: MPEG-4 AVC Video / 18984 kbps / 1080i / 29.970 fps / 16:9 / High Profile 4.1
    Audio: English / DTS-HD Master Audio / 5.1 / 48 kHz / 3079 kbps / 16-bit (DTS Core: 5.1 / 48 kHz / 1509 kbps / 16-bit)
    Subtitle: English / 1.462 kbps
    Disc Title: DTS MUSIC DEMO 4
    Disc Size: 25,010,850,972 bytes
    Protection: AACS
    BD-Java: No
    Playlist: 00012.MPLS
    Size: 1,684,333,056 bytes
    Length: 0:06:29.522
    Total Bitrate: 34.59 Mbps
    Video: MPEG-4 AVC Video / 29631 kbps / 1080i / 29.970 fps / 16:9 / High Profile 4.1
    Audio: English / DTS-HD Master Audio / 5.1 / 48 kHz / 3235 kbps / 16-bit (DTS Core: 5.1 / 48 kHz / 1509 kbps / 16-bit)
    Subtitle: English / 1.743 kbps
    Disc Title: DTS MUSIC DEMO 4
    Disc Size: 25,010,850,972 bytes
    Protection: AACS
    BD-Java: No
    Playlist: 00001.MPLS
    Size: 808,968,576 bytes
    Length: 0:06:17.443
    Total Bitrate: 17.15 Mbps
    Video: MPEG-4 AVC Video / 10882 kbps / 1080i / 29.970 fps / 16:9 / High Profile 4.1
    Audio: English / DTS-HD Master Audio / 5.1 / 48 kHz / 5263 kbps / 24-bit (DTS Core: 5.1 / 48 kHz / 1509 kbps / 24-bit)
    Subtitle: English / 1.892 kbps
    Disc Title: DTS MUSIC DEMO 4
    Disc Size: 25,010,850,972 bytes
    Protection: AACS
    BD-Java: No
    Playlist: 00003.MPLS
    Size: 1,847,075,904 bytes
    Length: 0:06:03.563
    Total Bitrate: 40.64 Mbps
    Video: MPEG-4 AVC Video / 29869 kbps / 1080i / 29.970 fps / 16:9 / High Profile 4.1
    Audio: English / DTS-HD Master Audio / 5.1 / 96 kHz / 8796 kbps / 24-bit (DTS Core: 5.1 / 48 kHz / 1509 kbps / 24-bit)
    Subtitle: English / 1.864 kbps
    Disc Title: DTS MUSIC DEMO 4
    Disc Size: 25,010,850,972 bytes
    Protection: AACS
    BD-Java: No
    Playlist: 00005.MPLS
    Size: 1,475,284,992 bytes
    Length: 0:06:01.194
    Total Bitrate: 32.68 Mbps
    Video: MPEG-4 AVC Video / 21602 kbps / 1080i / 29.970 fps / 16:9 / High Profile 4.1
    Audio: English / DTS-HD Master Audio / 5.1 / 96 kHz / 9424 kbps / 24-bit (DTS Core: 5.1 / 48 kHz / 1509 kbps / 24-bit)
    Subtitle: English / 1.879 kbps
    Disc Title: DTS MUSIC DEMO 4
    Disc Size: 25,010,850,972 bytes
    Protection: AACS
    BD-Java: No
    Playlist: 00006.MPLS
    Size: 793,860,096 bytes
    Length: 0:05:19.605
    Total Bitrate: 19.87 Mbps
    Video: MPEG-4 AVC Video / 16098 kbps / 1080i / 29.970 fps / 16:9 / High Profile 4.1
    Audio: English / DTS-HD Master Audio / 5.1 / 48 kHz / 2656 kbps / 16-bit (DTS Core: 5.1 / 48 kHz / 1509 kbps / 16-bit)
    Subtitle: English / 2.149 kbps
    Disc Title: DTS MUSIC DEMO 4
    Disc Size: 25,010,850,972 bytes
    Protection: AACS
    BD-Java: No
    Playlist: 00022.MPLS
    Size: 1,068,804,096 bytes
    Length: 0:05:15.214
    Total Bitrate: 27.13 Mbps
    Video: MPEG-4 AVC Video / 21354 kbps / 1080i / 29.970 fps / 16:9 / High Profile 4.1
    Audio: English / DTS-HD Master Audio / 5.1 / 48 kHz / 4353 kbps / 24-bit (DTS Core: 5.1 / 48 kHz / 1509 kbps / 24-bit)
    Subtitle: English / 2.317 kbps
    Disc Title: DTS MUSIC DEMO 4
    Disc Size: 25,010,850,972 bytes
    Protection: AACS
    BD-Java: No
    Playlist: 00015.MPLS
    Size: 822,871,296 bytes
    Length: 0:05:14.514
    Total Bitrate: 20.93 Mbps
    Video: MPEG-4 AVC Video / 14995 kbps / 1080i / 29.970 fps / 16:9 / High Profile 4.1
    Audio: English / DTS-HD Master Audio / 5.1 / 48 kHz / 4776 kbps / 24-bit (DTS Core: 5.1 / 48 kHz / 1509 kbps / 24-bit)
    Subtitle: English / 1.928 kbps
    Disc Title: DTS MUSIC DEMO 4
    Disc Size: 25,010,850,972 bytes
    Protection: AACS
    BD-Java: No
    Playlist: 00009.MPLS
    Size: 1,599,386,688 bytes
    Length: 0:05:10.309
    Total Bitrate: 41.23 Mbps
    Video: MPEG-4 AVC Video / 34233 kbps / 1080i / 29.970 fps / 16:9 / High Profile 4.1
    Audio: English / DTS-HD Master Audio / 5.1 / 48 kHz / 4998 kbps / 24-bit (DTS Core: 5.1 / 48 kHz / 1509 kbps / 24-bit)
    Subtitle: English / 2.352 kbps
    Disc Title: DTS MUSIC DEMO 4
    Disc Size: 25,010,850,972 bytes
    Protection: AACS
    BD-Java: No
    Playlist: 00018.MPLS
    Size: 841,070,592 bytes
    Length: 0:05:00.933
    Total Bitrate: 22.36 Mbps
    Video: MPEG-4 AVC Video / 16343 kbps / 1080i / 29.970 fps / 16:9 / High Profile 4.0
    Audio: English / DTS-HD Master Audio / 5.1 / 48 kHz / 4796 kbps / 24-bit (DTS Core: 5.1 / 48 kHz / 1509 kbps / 24-bit)
    Subtitle: English / 2.403 kbps
    Disc Title: DTS MUSIC DEMO 4
    Disc Size: 25,010,850,972 bytes
    Protection: AACS
    BD-Java: No
    Playlist: 00013.MPLS
    Size: 864,024,576 bytes
    Length: 0:04:47.818
    Total Bitrate: 24.02 Mbps
    Video: MPEG-4 AVC Video / 14995 kbps / 1080i / 29.970 fps / 16:9 / High Profile 4.0
    Audio: English / DTS-HD High-Res Audio / 5.1 / 48 kHz / 3840 kbps / 24-bit (DTS Core: 5.1 / 48 kHz / 1509 kbps / 24-bit)
    Audio: English / DTS-HD High-Res Audio / 5.1 / 48 kHz / 3840 kbps / 16-bit (DTS Core: 5.1 / 48 kHz / 1509 kbps / 16-bit)
    [​IMG]

    Mã:
    Disc Title: DTS MUSIC DEMO 4
    Disc Size: 25,010,850,972 bytes
    Protection: AACS
    BD-Java: No
    Playlist: 00023.MPLS
    Size: 529,875,072 bytes
    Length: 0:04:38.411
    Total Bitrate: 15.23 Mbps
    Video: MPEG-4 AVC Video / 12906 kbps / 1080i / 29.970 fps / 16:9 / High Profile 4.0
    Audio: English / DTS Audio / 5.1 / 48 kHz / 1509 kbps / 24-bit
    Subtitle: English / 2.472 kbps
    Disc Title: DTS MUSIC DEMO 4
    Disc Size: 25,010,850,972 bytes
    Protection: AACS
    BD-Java: No
    Playlist: 00002.MPLS
    Size: 1,383,327,744 bytes
    Length: 0:04:17.924
    Total Bitrate: 42.91 Mbps
    Video: MPEG-4 AVC Video / 35360 kbps / 1080i / 29.970 fps / 16:9 / High Profile 4.1
    Audio: English / DTS-HD Master Audio / 5.1 / 48 kHz / 5467 kbps / 24-bit (DTS Core: 5.1 / 48 kHz / 1509 kbps / 24-bit)
    Subtitle: English / 3.457 kbps
    Disc Title: DTS MUSIC DEMO 4
    Disc Size: 25,010,850,972 bytes
    Protection: AACS
    BD-Java: No
    Playlist: 00016.MPLS
    Size: 769,726,464 bytes
    Length: 0:04:15.114
    Total Bitrate: 24.14 Mbps
    Video: MPEG-4 AVC Video / 17825 kbps / 1080i / 29.970 fps / 16:9 / High Profile 4.1
    Audio: English / DTS-HD Master Audio / 5.1 / 48 kHz / 5020 kbps / 24-bit (DTS Core: 5.1 / 48 kHz / 1509 kbps / 24-bit)
    Disc Title: DTS MUSIC DEMO 4
    Disc Size: 25,010,850,972 bytes
    Protection: AACS
    BD-Java: No
    Playlist: 00019.MPLS
    Size: 1,347,323,904 bytes
    Length: 0:03:57.904
    Total Bitrate: 45.31 Mbps
    Video: MPEG-2 Video / 38469 kbps / 1080i / 29.970 fps / 16:9
    Audio: English / DTS-HD Master Audio / 5.1 / 48 kHz / 4658 kbps / 24-bit (DTS Core: 5.1 / 48 kHz / 1509 kbps / 24-bit)
    Subtitle: English / 0.965 kbps
    Disc Title: DTS MUSIC DEMO 4
    Disc Size: 25,010,850,972 bytes
    Protection: AACS
    BD-Java: No
    Playlist: 00017.MPLS
    Size: 657,898,752 bytes
    Length: 0:03:49.329
    Total Bitrate: 22.95 Mbps
    Video: MPEG-4 AVC Video / 17980 kbps / 1080i / 29.970 fps / 16:9 / High Profile 4.0
    Audio: English / DTS-HD High-Res Audio / 5.1 / 48 kHz / 3840 kbps / 24-bit (DTS Core: 5.1 / 48 kHz / 1509 kbps / 24-bit)
    Subtitle: English / 2.420 kbps
    Disc Title: DTS MUSIC DEMO 4
    Disc Size: 25,010,850,972 bytes
    Protection: AACS
    BD-Java: No
    Playlist: 00020.MPLS
    Size: 344,204,928 bytes
    Length: 0:03:32.045
    Total Bitrate: 12.99 Mbps
    Video: MPEG-4 AVC Video / 10776 kbps / 1080i / 23.976 fps / 16:9 / High Profile 4.0
    Audio: English / DTS Audio / 5.1 / 48 kHz / 1509 kbps / 24-bit
    Subtitle: English / 3.232 kbps
    Disc Title: DTS MUSIC DEMO 4
    Disc Size: 25,010,850,972 bytes
    Protection: AACS
    BD-Java: No
    Playlist: 00010.MPLS
    Size: 818,147,328 bytes
    Length: 0:03:22.826
    Total Bitrate: 32.27 Mbps
    Video: MPEG-4 AVC Video / 27990 kbps / 1080i / 29.970 fps / 16:9 / High Profile 4.1
    Audio: English / DTS-HD Master Audio / 5.1 / 48 kHz / 2646 kbps / 24-bit (DTS Core: 5.1 / 48 kHz / 1509 kbps / 24-bit)
    Subtitle: English / 2.755 kbps
    Disc Title: DTS MUSIC DEMO 4
    Disc Size: 25,010,850,972 bytes
    Protection: AACS
    BD-Java: No
    Playlist: 00007.MPLS
    Size: 871,165,056 bytes
    Length: 0:03:16.829
    Total Bitrate: 35.41 Mbps
    Video: VC-1 Video / 29762 kbps / 1080i / 29.970 fps / 16:9 / Advanced Profile 3
    Audio: English / DTS-HD Master Audio / 5.1 / 48 kHz / 3877 kbps / 24-bit (DTS Core: 5.1 / 48 kHz / 1509 kbps / 24-bit)
    Subtitle: English / 5.798 kbps
    Disc Title: DTS MUSIC DEMO 4
    Disc Size: 25,010,850,972 bytes
    Protection: AACS
    BD-Java: No
    Playlist: 00008.MPLS
    Size: 655,492,224 bytes
    Length: 0:03:14.494
    Total Bitrate: 26.96 Mbps
    Video: MPEG-4 AVC Video / 20436 kbps / 1080i / 29.970 fps / 16:9 / High Profile 4.0
    Audio: English / DTS-HD Master Audio / 5.1 / 48 kHz / 5118 kbps / 24-bit (DTS Core: 5.1 / 48 kHz / 1509 kbps / 24-bit)
    Subtitle: English / 3.742 kbps
    Disc Title: DTS MUSIC DEMO 4
    Disc Size: 25,010,850,972 bytes
    Protection: AACS
    BD-Java: No
    Playlist: 00014.MPLS
    Size: 305,068,032 bytes
    Length: 0:03:04.746
    Total Bitrate: 13.21 Mbps
    Video: MPEG-4 AVC Video / 8068 kbps / 1080p / 23.976 fps / 16:9 / High Profile 4.1
    Audio: English / DTS-HD Master Audio / 5.1 / 48 kHz / 4498 kbps / 24-bit (DTS Core: 5.1 / 48 kHz / 1509 kbps / 24-bit)
    Subtitle: English / 3.686 kbps
    Disc Title: DTS MUSIC DEMO 4
    Disc Size: 25,010,850,972 bytes
    Protection: AACS
    BD-Java: No
    Playlist: 00004.MPLS
    Size: 634,068,288 bytes
    Length: 0:02:31.251
    Total Bitrate: 33.54 Mbps
    Video: MPEG-4 AVC Video / 28883 kbps / 1080i / 29.970 fps / 16:9 / High Profile 4.1
    Audio: English / DTS-HD Master Audio / 5.1 / 48 kHz / 2971 kbps / 16-bit (DTS Core: 5.1 / 48 kHz / 1509 kbps / 16-bit)
    Subtitle: English / 6.186 kbps
    Dung lượng: 23.3 GB

    fshare.vn.png

    Nhấn nút Cảm ơn (dưới chân bài) để thấy link!


    Pass: TonytruongHDSG​

    Nguồn: ST- hbinhlove2003

    P/s Mời các bác tiếp phần này nhé. :) http://www.hdvietnam.com/diendan/78...x-demo-disc-dolby-truehd-dts.html#post6478237
     
    Chỉnh sửa cuối: 26/2/16
  2. davidhand

    davidhand Moderator

    Tham gia ngày:
    23/5/09
    Bài viết:
    320
    Đã được cảm ơn:
    142
    Nghề nghiệp:
    Petroleum
    Nơi ở:
    Vũng Tàu, Việt Nam
    Ðề: [Audio Singer/Songwriter) DTS chuẩn Bluray ] DTS Demo 2013 2D.3D BluRay.1080p.AVC.DTS-HDMA 5.1 Collections

    Đĩa này e có rồi, rất hay! Bác Tony có mấy đĩa còn lại thì post lên giùm luôn đi nào, hình như có 5 đĩa thì phải! E đang hóng đây!
    Thanks,
     
    binhxitrum, ih8u, anhhan2002 and 2 others like this.
  3. tonytruong

    tonytruong Super Moderators

    Tham gia ngày:
    26/11/09
    Bài viết:
    22,402
    Đã được cảm ơn:
    14,463
    Giới tính:
    Nam
    Nơi ở:
    Việt Nam
    Ðề: [Audio Singer/Songwriter) DTS chuẩn Bluray ] DTS Demo 2013 2D.3D BluRay.1080p.AVC.DTS-HDMA 5.1 Collections

    DTS Blu-ray Music Demo Disc 5 2013 1080i Blu-ray AVC DTS-HD MA 5.1

    YyJNJl8.jpg
    8iG4lvI.jpg
    rF3VpAn.jpg

    Mã:
    OPPO BDP-93 + DENON AVC-A1HDA
    Metallica - Nothing Else Matters
    Iron Maiden - Fear Of The Dark
    AC/DC - Highway To Hell
    U 2 - City Of Blinding Lights
    Incubus - Love hurts
    Green Day - Holiday
    Nirvana - About A Girl
    Kings Of Leon - Use Somebody
    Muse - Starlight
    Omar Hakim - Listen Up
    Return To Forever - Hymn Of The Seventh Galaxy
    Toto - Hold The Line
    Nickelback - Saving Me
    Jason Mraz feat. Colbie Caillat - Lucky
    Dido - White Flag
    Keane - Somewhere Only We Know
    Leonard Cohen - Closing Time
    The Pogues - Dirty Old Town
    Mumford & Sons - The Cave
    Rolling Stones - Honky Tonk Woman
    Whitesnake - Is This Love
    Peter Frampton - Baby I Love Your Way
    Supertramp - The Logical Song
    Talking Heads - Life During Wartime
    Pixies - Debaser
    Peter Gabriel - Blood Of Eden
    [​IMG]
    Mã:
    Disc Title: DTS Music Demo 5
    Disc Size: 24,770,413,356 bytes
    Protection: AACS
    BD-Java: No
    Playlist: 00010.MPLS
    Size: 2,150,062,080 bytes
    Length: 0:06:56.682
    Total Bitrate: 41.28 Mbps
    Video: MPEG-2 Video / 27832 kbps / 1080i / 23.976 fps / 16:9
    Audio: English / DTS-HD Master Audio / 7.1 / 96 kHz / 11899 kbps / 24-bit (DTS Core: 5.1-ES / 48 kHz / 1509 kbps / 24-bit)
    
    Disc Title: DTS Music Demo 5
    Disc Size: 24,770,413,356 bytes
    Protection: AACS
    BD-Java: No
    Playlist: 00002.MPLS
    Size: 1,527,853,056 bytes
    Length: 0:06:49.823
    Total Bitrate: 29.82 Mbps
    Video: MPEG-4 AVC Video / 25325 kbps / 1080p / 23.976 fps / 16:9 / High Profile 4.1
    Audio: English / DTS-HD Master Audio / 5.1 / 48 kHz / 2975 kbps / 16-bit (DTS Core: 5.1 / 48 kHz / 1509 kbps / 16-bit)
    Subtitle: English / 0.000 kbps
    
    Disc Title: DTS Music Demo 5
    Disc Size: 24,770,413,356 bytes
    Protection: AACS
    BD-Java: No
    Playlist: 00026.MPLS
    Size: 1,281,386,496 bytes
    Length: 0:06:08.468
    Total Bitrate: 27.82 Mbps
    Video: MPEG-4 AVC Video / 24105 kbps / 1080i / 29.970 fps / 16:9 / High Profile 4.1
    Audio: English / DTS-HD Master Audio / 5.1 / 48 kHz / 2267 kbps / 16-bit (DTS Core: 5.1 / 48 kHz / 1509 kbps / 16-bit)
    Subtitle: English / 2.202 kbps
    
    Disc Title: DTS Music Demo 5
    Disc Size: 24,770,413,356 bytes
    Protection: AACS
    BD-Java: No
    Playlist: 00017.MPLS
    Size: 1,306,718,208 bytes
    Length: 0:05:52.385
    Total Bitrate: 29.67 Mbps
    Video: MPEG-4 AVC Video / 23768 kbps / 1080i / 29.970 fps / 16:9 / High Profile 4.1
    Audio: English / DTS-HD Master Audio / 5.1 / 48 kHz / 4374 kbps / 24-bit (DTS Core: 5.1 / 48 kHz / 1509 kbps / 24-bit)
    Subtitle: English / 1.911 kbps
    
    Disc Title: DTS Music Demo 5
    Disc Size: 24,770,413,356 bytes
    Protection: AACS
    BD-Java: No
    Playlist: 00024.MPLS
    Size: 1,283,155,968 bytes
    Length: 0:05:49.472
    Total Bitrate: 29.37 Mbps
    Video: MPEG-4 AVC Video / 24987 kbps / 1080p / 23.976 fps / 16:9 / High Profile 4.1
    Audio: English / DTS-HD Master Audio / 5.1 / 48 kHz / 2881 kbps / 16-bit (DTS Core: 5.1 / 48 kHz / 1509 kbps / 16-bit)
    Subtitle: English / 0.000 kbps
    
    Disc Title: DTS Music Demo 5
    Disc Size: 24,770,413,356 bytes
    Protection: AACS
    BD-Java: No
    Playlist: 00004.MPLS
    Size: 1,452,969,984 bytes
    Length: 0:05:26.492
    Total Bitrate: 35.60 Mbps
    Video: MPEG-4 AVC Video / 28743 kbps / 1080i / 29.970 fps / 16:9 / High Profile 4.1
    Audio: English / DTS-HD Master Audio / 5.1 / 48 kHz / 5086 kbps / 24-bit (DTS Core: 5.1 / 48 kHz / 1509 kbps / 24-bit)
    Subtitle: English / 2.056 kbps
    
    Disc Title: DTS Music Demo 5
    Disc Size: 24,770,413,356 bytes
    Protection: AACS
    BD-Java: No
    Playlist: 00022.MPLS
    Size: 222,732,288 bytes
    Length: 0:05:05.680
    Total Bitrate: 5.83 Mbps
    Video: MPEG-4 AVC Video / 3907 kbps / 1080i / 23.976 fps / 16:9 / High Profile 4.0
    Audio: English / DTS Audio / 5.1 / 48 kHz / 1509 kbps / 24-bit
    Subtitle: English / 3.024 kbps
    
    Disc Title: DTS Music Demo 5
    Disc Size: 24,770,413,356 bytes
    Protection: AACS
    BD-Java: No
    Playlist: 00020.MPLS
    Size: 1,272,353,664 bytes
    Length: 0:04:45.785
    Total Bitrate: 35.62 Mbps
    Video: MPEG-4 AVC Video / 28678 kbps / 1080i / 23.976 fps / 16:9 / High Profile 4.1
    Audio: English / DTS-HD Master Audio / 5.1 / 48 kHz / 5176 kbps / 24-bit (DTS Core: 5.1 / 48 kHz / 1509 kbps / 24-bit)
    
    Disc Title: DTS Music Demo 5
    Disc Size: 24,770,413,356 bytes
    Protection: AACS
    BD-Java: No
    Playlist: 00006.MPLS
    Size: 1,348,251,648 bytes
    Length: 0:04:40.913
    Total Bitrate: 38.40 Mbps
    Video: MPEG-4 AVC Video / 33242 kbps / 1080i / 29.970 fps / 16:9 / High Profile 4.1
    Audio: English / DTS-HD Master Audio / 5.1 / 48 kHz / 3268 kbps / 16-bit (DTS Core: 5.1 / 48 kHz / 1509 kbps / 16-bit)
    Subtitle: English / 0.000 kbps
    
    Disc Title: DTS Music Demo 5
    Disc Size: 24,770,413,356 bytes
    Protection: AACS
    BD-Java: No
    Playlist: 00001.MPLS
    Size: 736,315,392 bytes
    Length: 0:04:37.277
    Total Bitrate: 21.24 Mbps
    Video: MPEG-4 AVC Video / 14965 kbps / 1080i / 29.970 fps / 16:9 / High Profile 4.1
    Audio: English / DTS-HD Master Audio / 5.1 / 48 kHz / 5102 kbps / 24-bit (DTS Core: 5.1 / 48 kHz / 1509 kbps / 24-bit)
    Subtitle: English / 3.016 kbps
    
    Disc Title: DTS Music Demo 5
    Disc Size: 24,770,413,356 bytes
    Protection: AACS
    BD-Java: No
    Playlist: 00021.MPLS
    Size: 1,053,756,096 bytes
    Length: 0:04:29.769
    Total Bitrate: 31.25 Mbps
    Video: MPEG-4 AVC Video / 28259 kbps / 1080i / 29.970 fps / 16:9 / High Profile 4.1
    Audio: English / DTS Audio / 5.1 / 48 kHz / 1509 kbps / 24-bit
    Subtitle: English / 2.567 kbps
    
    Disc Title: DTS Music Demo 5
    Disc Size: 24,770,413,356 bytes
    Protection: AACS
    BD-Java: No
    Playlist: 00015.MPLS
    Size: 536,594,304 bytes
    Length: 0:04:19.092
    Total Bitrate: 16.57 Mbps
    Video: MPEG-4 AVC Video / 14994 kbps / 1080p / 29.970 fps / 16:9 / High Profile 4.0
    Audio: English / DTS Audio / 5.1 / 48 kHz / 768 kbps / 24-bit
    Subtitle: English / 2.620 kbps
    
    Disc Title: DTS Music Demo 5
    Disc Size: 24,770,413,356 bytes
    Protection: AACS
    BD-Java: No
    Playlist: 00016.MPLS
    Size: 662,722,560 bytes
    Length: 0:04:13.052
    Total Bitrate: 20.95 Mbps
    Video: MPEG-4 AVC Video / 18398 kbps / 1080i / 29.970 fps / 16:9 / High Profile 4.0
    Audio: English / DTS Audio / 5.1 / 48 kHz / 1509 kbps / 24-bit
    Subtitle: English / 2.643 kbps
    
    Disc Title: DTS Music Demo 5
    Disc Size: 24,770,413,356 bytes
    Protection: AACS
    BD-Java: No
    Playlist: 00009.MPLS
    Size: 687,707,136 bytes
    Length: 0:04:12.752
    Total Bitrate: 21.77 Mbps
    Video: MPEG-4 AVC Video / 19992 kbps / 1080i / 29.970 fps / 16:9 / High Profile 4.0
    Audio: English / DTS Audio / 5.1 / 48 kHz / 768 kbps / 24-bit
    Subtitle: English / 0.517 kbps
    
    Disc Title: DTS Music Demo 5
    Disc Size: 24,770,413,356 bytes
    Protection: AACS
    BD-Java: No
    Playlist: 00005.MPLS
    Size: 482,525,184 bytes
    Length: 0:04:06.713
    Total Bitrate: 15.65 Mbps
    Video: MPEG-4 AVC Video / 9996 kbps / 1080i / 29.970 fps / 16:9 / High Profile 4.0
    Audio: English / DTS-HD Master Audio / 5.1 / 48 kHz / 4711 kbps / 24-bit (DTS Core: 5.1 / 48 kHz / 1509 kbps / 24-bit)
    Subtitle: English / 2.667 kbps
    
    Disc Title: DTS Music Demo 5
    Disc Size: 24,770,413,356 bytes
    Protection: AACS
    BD-Java: No
    Playlist: 00003.MPLS
    Size: 1,036,062,720 bytes
    Length: 0:04:06.621
    Total Bitrate: 33.61 Mbps
    Video: MPEG-4 AVC Video / 26900 kbps / 1080i / 23.976 fps / 16:9 / High Profile 4.1
    Audio: English / DTS-HD Master Audio / 5.1 / 48 kHz / 5022 kbps / 24-bit (DTS Core: 5.1 / 48 kHz / 1509 kbps / 24-bit)
    Subtitle: English / 2.861 kbps
    
    Disc Title: DTS Music Demo 5
    Disc Size: 24,770,413,356 bytes
    Protection: AACS
    BD-Java: No
    Playlist: 00012.MPLS
    Size: 1,108,085,184 bytes
    Length: 0:04:03.876
    Total Bitrate: 36.35 Mbps
    Video: MPEG-4 AVC Video / 29279 kbps / 1080i / 29.970 fps / 16:9 / High Profile 4.1
    Audio: English / DTS-HD Master Audio / 5.1 / 48 kHz / 5270 kbps / 24-bit (DTS Core: 5.1 / 48 kHz / 1509 kbps / 24-bit)
    Subtitle: English / 2.685 kbps
    
    Disc Title: DTS Music Demo 5
    Disc Size: 24,770,413,356 bytes
    Protection: AACS
    BD-Java: No
    Playlist: 00019.MPLS
    Size: 801,073,152 bytes
    Length: 0:04:03.794
    Total Bitrate: 26.29 Mbps
    Video: MPEG-4 AVC Video / 19992 kbps / 1080i / 29.970 fps / 16:9 / High Profile 4.0
    Audio: English / DTS-HD Master Audio / 5.1 / 48 kHz / 5126 kbps / 24-bit (DTS Core: 5.1 / 48 kHz / 1509 kbps / 24-bit)
    Subtitle: English / 2.769 kbps
    
    Disc Title: DTS Music Demo 5
    Disc Size: 24,770,413,356 bytes
    Protection: AACS
    BD-Java: No
    Playlist: 00008.MPLS
    Size: 850,212,864 bytes
    Length: 0:04:01.199
    Total Bitrate: 28.20 Mbps
    Video: MPEG-4 AVC Video / 19057 kbps / 1080i / 23.976 fps / 16:9 / High Profile 4.1
    Audio: English / DTS-HD Master Audio / 5.1 / 96 kHz / 7680 kbps / 24-bit (DTS Core: 5.1 / 48 kHz / 1509 kbps / 24-bit)
    Subtitle: English / 3.090 kbps
    
    Disc Title: DTS Music Demo 5
    Disc Size: 24,770,413,356 bytes
    Protection: AACS
    BD-Java: No
    Playlist: 00011.MPLS
    Size: 967,010,880 bytes
    Length: 0:03:56.069
    Total Bitrate: 32.77 Mbps
    Video: MPEG-4 AVC Video / 26155 kbps / 1080i / 29.970 fps / 16:9 / High Profile 4.1
    Audio: English / DTS-HD Master Audio / 5.1 / 48 kHz / 5051 kbps / 24-bit (DTS Core: 5.1 / 48 kHz / 768 kbps / 24-bit)
    Subtitle: English / 3.219 kbps
    
    Disc Title: DTS Music Demo 5
    Disc Size: 24,770,413,356 bytes
    Protection: AACS
    BD-Java: No
    Playlist: 00018.MPLS
    Size: 490,749,312 bytes
    Length: 0:03:45.458
    Total Bitrate: 17.41 Mbps
    Video: MPEG-4 AVC Video / 14993 kbps / 1080p / 29.970 fps / 16:9 / High Profile 4.0
    Audio: English / DTS Audio / 5.1 / 48 kHz / 1509 kbps / 24-bit
    Subtitle: English / 4.022 kbps
    
    Disc Title: DTS Music Demo 5
    Disc Size: 24,770,413,356 bytes
    Protection: AACS
    BD-Java: No
    Playlist: 00023.MPLS
    Size: 1,141,880,832 bytes
    Length: 0:03:44.583
    Total Bitrate: 40.68 Mbps
    Video: MPEG-4 AVC Video / 31606 kbps / 1080i / 24 fps / 16:9 / High Profile 4.1
    Audio: English / DTS-HD Master Audio / 5.1 / 96 kHz / 7089 kbps / 24-bit (DTS Core: 6.1 / 48 kHz / 1509 kbps / 24-bit)
    Subtitle: English / 3.180 kbps
    [​IMG]
    Mã:
    Disc Title: DTS Music Demo 5
    Disc Size: 24,770,413,356 bytes
    Protection: AACS
    BD-Java: No
    Playlist: 00013.MPLS
    Size: 266,170,368 bytes
    Length: 0:03:41.554
    Total Bitrate: 9.61 Mbps
    Video: MPEG-4 AVC Video / 8346 kbps / 1080i / 23.976 fps / 16:9 / High Profile 4.1
    Audio: English / DTS Audio / 5.1 / 48 kHz / 768 kbps / 24-bit
    Subtitle: English / 3.415 kbps
    
    Disc Title: DTS Music Demo 5
    Disc Size: 24,770,413,356 bytes
    Protection: AACS
    BD-Java: No
    Playlist: 00014.MPLS
    Size: 512,305,152 bytes
    Length: 0:03:21.000
    Total Bitrate: 20.39 Mbps
    Video: MPEG-4 AVC Video / 14993 kbps / 1080i / 29.970 fps / 16:9 / High Profile 4.0
    Audio: English / DTS-HD Master Audio / 5.1 / 48 kHz / 4262 kbps / 24-bit (DTS Core: 5.1 / 48 kHz / 1509 kbps / 24-bit)
    
    Disc Title: DTS Music Demo 5
    Disc Size: 24,770,413,356 bytes
    Protection: AACS
    BD-Java: No
    Playlist: 00007.MPLS
    Size: 726,502,080 bytes
    Length: 0:03:04.976
    Total Bitrate: 31.42 Mbps
    Video: MPEG-4 AVC Video / 24986 kbps / 1080p / 23.976 fps / 16:9 / High Profile 4.0
    Audio: English / DTS-HD Master Audio / 5.1 / 48 kHz / 4845 kbps / 24-bit (DTS Core: 5.1 / 48 kHz / 1509 kbps / 24-bit)
    Subtitle: English / 3.524 kbps
    
    Disc Title: DTS Music Demo 5
    Disc Size: 24,770,413,356 bytes
    Protection: AACS
    BD-Java: No
    Playlist: 00025.MPLS
    Size: 645,083,136 bytes
    Length: 0:02:53.973
    Total Bitrate: 29.66 Mbps
    Video: MPEG-4 AVC Video / 25422 kbps / 1080i / 29.970 fps / 16:9 / High Profile 4.1
    Audio: English / DTS-HD Master Audio / 5.1 / 48 kHz / 2717 kbps / 16-bit (DTS Core: 5.1 / 48 kHz / 1509 kbps / 16-bit)
    Subtitle: English / 3.950 kbps
    
    Disc Title: DTS Music Demo 5
    Disc Size: 24,770,413,356 bytes
    Protection: AACS
    BD-Java: No
    Playlist: 00000.MPLS
    Size: 218,351,616 bytes
    Length: 0:00:41.909
    Total Bitrate: 41.68 Mbps
    Video: MPEG-4 AVC Video / 34915 kbps / 1080p / 23.976 fps / 16:9 / High Profile 4.1
    Audio: English / DTS-HD Master Audio / 7.1 / 48 kHz / 4738 kbps / 24-bit (DTS Core: 5.1 / 48 kHz / 1509 kbps / 24-bit)

    Dung Lượng: 23.07 GB

    fshare.vn.png

    Nhấn nút Cảm ơn (dưới chân bài) để thấy link!


    Pass: TonytruongHDSG​

    Nguồn: ST- hbinhlove2003

    =============================================================================


    DTS Blu-ray Music Demo Disc 6 2013 1080i Blu-ray AVC DTS-HD MA 5.1

    iwYFdBg.jpg
    nHMgqBN.jpg
    MvwAWlb.jpg

    Mã:
    Quote
    Andrea Bocelli - La Voce Del Silenzio
    Andr?Rieu - Ave Maria
    Sea Wolf - Old Friend  (7.1)
    Lee Ritenour - Possibilities
    Rihanna feat. Mikky Ekko - Stay
    Rob Thomas - You Know Me
    Labirinth feat. Emeli Sande - Beneath Your Beautiful
    Santana - Maria Maria
    Alicia Keys - Girl On Fire
    Neil Cowley Trio - Rooster Was A Witness
    Herbie Hancock - Tamatant Tilay/Exodus
    Joe Bonamassa - Black Lung Heartache
    Joe Satriani - Flying In A Blue Dream (7.1)
    John Mayer - Slow Dancing In A Burning Room
    Eagles - Already Gone
    Owl City - Deer In The Headlight
    Michael Bolton - Steel Bars
    Jeff Beck - Led Boots
    U2 - The Unforgettable Fire
    Whitesnake - Here I Go Again
    Alanis Morissette - Thank You
    Robbie Williams - Angels
    Shakira - Underneath Your Clothes
    Mika - Big Girl (You Are Beautiful)
    Minus The Bear - Listing (7.1)
    Royal Teeth - Wild (7.1)
    Fun - Some Nights
    Avicii - Wake Me Up
    OMD - Electricity
    [​IMG]
    Mã:
    Quote
    
    Name:                   00022.MPLS
    Length:                 0:05:51.999 (h:m:s.ms)
    Size:                   1,397,514,240 bytes
    Total Bitrate:          31.76 Mbps
    
    VIDEO:
    
    Codec                   Bitrate             Description 
    -----                   -------             ----------- 
    MPEG-4 AVC Video        24952 kbps          1080i / 29.970 fps / 16:9 / High Profile 4.1
    
    AUDIO:
    
    Codec                           Language        Bitrate         Description 
    -----                           --------        -------         ----------- 
    DTS-HD Master Audio             English         5328 kbps       5.1 / 48 kHz / 5328 kbps / 24-bit (DTS Core: 5.1 / 48 kHz / 1509 kbps / 24-bit)
    
    SUBTITLES:
    
    Codec                           Language        Bitrate         Description 
    -----                           --------        -------         ----------- 
    Presentation Graphics           English         2.521 kbps
    Dung Lượng: 22.86

    fshare.vn.png

    Nhấn nút Cảm ơn (dưới chân bài) để thấy link!


    Pass: TonytruongHDSG​

    Nguồn: ST- hbinhlove2003

    =============================================================================

    DTS Blu-ray Music Demo Disc 7 2013 1080i Blu-ray AVC DTS-HD MA 5.1

    Zf8QNkG.jpg
    VChjdsG.jpg
    dwdIpjq.jpg

    Mã:
    Reference quality DTS-HD demonstration Blu-ray disc. Great for testing and demonstrating your surround system.
    Includes more than 2 hours of great sounding pop, rock, dance and classical music.
    
    BDMV and Certificate folders for burning on BD-25 with Blu-Ray burner
    or for playing with for example Arcsoft Total Media Theatre or other BD PC players.
    VLC Player also plays individual tracks in BDMV/STREAM folder.
    
    Without any copy or regional protection. With Title Menu and Auto-Loop function for In-store demo.
    Cover and Disc Label for printing included.
    
    If you don't own an Blu-Ray burner, you can easily and very quick convert
    individual .m2ts clips (in folder BDMV-STREAM) without re-encoding to .mkv with MKVToolnix.
    MKVToolnix is free software - http://www.videohelp.com/tools/MKVtoolnix
    Those .mkv files are then playable from external HDD in all Blu-Ray and multimedia players
    and even on most newer TV's with DTS support (Samsung, LG & Panasonic TV's - models from 2012 and up and Sony's from 2013 and up)
    
    Audio Codecs : DTS-HD Master Audio, DTS
    Video Codecs  Full HD uncompressed h.264 & VC-1
    except tracks 5 and 7 contains upscaled SD video

    Mã:
    Contains following tracks in 5.1 surround :
    
    Adele - Someone Like You
    Andrea Bocelli - Libiamo Ne’lieti Calici
    Gotye feat. Kimbra - Somebody That I Used To Know
    (contains two DTS-HD mixes - first one is more bright sounding, the second one is more audiophile like -
      more natural, with better timing, dynamics and more homogeneous 5.1 sound stage, only less bright....
      You can toggle between them with "Audio" button in your player)
    Peter Gabriel - Digging In The Dirt
    Guido's Orchestra - Con Te Partiro
    Bryan Adams - Heaven
    Bee Gees - Islands In The Stream
    Julieta Venegas - Mírame Bien
    Helene Fischer - Poker Face
    Stevie Wonder - Living For The City
    Bruno Mars - Gorilla
    Katy Perry - Firework
    Pitbull feat. Neyo - Give Me Everything
    Lily Allen - Not Fair
    Shakira - Waka Waka (This Time For Africa)
    The Killers - When You Were Young
    John Mayer - Waiting For A World To Change
    Placebo - The Bitter End
    Europe - The Final Countdown
    Jeff Beck - Apache
    Lindsey Buckingham - Go Your Own Way
    Santana and McLaughlin - Downstairs
    Rob Thomas - Smooth
    Foster The People - Pumped Up Kicks
    Tom Tom Club - Genius Of Love
    Patricia Barber - Light My Fire (audio only clip)
    [​IMG]
    Mã:
    DISC INFO:
    
    Disc Title:     DTS 7
    Disc Size:      24,560,681,107 bytes
    Protection:     AACS
    BD-Java:        No
    BDInfo:         0.5.8
    
    PLAYLIST REPORT:
    
    Name:                   00022.MPLS
    Length:                 0:07:43.029 (h:m:s.ms)
    Size:                   0 bytes
    Total Bitrate:          0.00 Mbps
    
    VIDEO:
    Codec                   Bitrate             Description 
    -----                   -------             ----------- 
    MPEG-4 AVC Video        0 kbps              1080i / 29.970 fps / 16:9 / High Profile 4.1
    
    AUDIO:
    Codec                           Language        Bitrate         Description 
    -----                           --------        -------         ----------- 
    DTS Audio                       English         1509 kbps       6.1 / 48 kHz / 1509 kbps / 24-bit
    
    SUBTITLES:
    Codec                           Language        Bitrate         Description 
    -----                           --------        -------         ----------- 
    Presentation Graphics           English         0.000 kbps                 
    
    FILES:
    Name            Time In         Length          Size            Total Bitrate
    ----            -------         ------          ----            -------------
    00022.M2TS      0:00:00.000     0:07:43.029     0               0           
    
    CHAPTERS:
    Number          Time In         Length          Avg Video Rate  Max 1-Sec Rate  Max 1-Sec Time  Max 5-Sec Rate  Max 5-Sec Time  Max 10Sec Rate  Max 10Sec Time  Avg Frame Size  Max Frame Size  Max Frame Time
    ------          -------         ------          --------------  --------------  --------------  --------------  --------------  --------------  --------------  --------------  --------------  --------------
    1               0:00:00.000     0:07:42.000     0 kbps          0 kbps          00:00:00.000    0 kbps          00:00:00.000    0 kbps          00:00:00.000    0 bytes         0 bytes         00:00:00.000
    2               0:07:42.000     0:00:01.029     0 kbps          0 kbps          00:00:00.000    0 kbps          00:00:00.000    0 kbps          00:00:00.000    0 bytes         0 bytes         00:00:00.000
    
    STREAM DIAGNOSTICS:
    File            PID             Type            Codec           Language                Seconds                 Bitrate                 Bytes           Packets     
    ----            ---             ----            -----           --------                --------------          --------------          -------------   -----       
    00022.M2TS      4113 (0x1011)   0x1B            AVC                                     1.568                   0                       0               0           
    00022.M2TS      4352 (0x1100)   0x82            DTS             eng (English)           1.568                   0                       0               0           
    00022.M2TS      4608 (0x1200)   0x90            PGS             eng (English)           1.568                   0                       0               0
    Dung Lượng: 22.85 GB

    fshare.vn.png

    Nhấn nút Cảm ơn (dưới chân bài) để thấy link!


    Pass: TonytruongHDSG​


    Nguồn: ST- hbinhlove2003

    =============================================================================


    DTS Blu-ray Music Demo Disc 8 2013 1080i Blu-ray AVC DTS-HD MA 5.1

    jTVNVGo.jpg
    aCD5Cbq.jpg
    aseZIRH.jpg

    Sade - Smooth Operator
    Adele - Chasing Pavements
    Andrea Bocelli & Katharine McPhee - The Prayer
    Laura Pausini - Primavera In Anticipo
    Coldplay - Charlie Brown
    Europe - Superstitious
    AC/DC - Thunderstruck
    Iron Maiden - Hallowed Be Thy Name
    Metallica - Seek And Destroy
    Linkin Park Vs Jay-Z - Numb/Encore
    Green Day - 21 Guns
    Queen - Another One Bites The Dust
    Bee Gees - Night Fever More Than A Woman
    Santana - Corazon Espinado
    Rob Thomas - If You`re Gone
    Lady Gaga - Bad Romance
    Caro Emerald - Stuck
    Kylie Minogue - All The Lovers
    Scooter - How Much Is The Fish
    OMD - Enola Gay
    Van Halen - Jump (audio only)
    Phil Collins - Don`t Lose My Number
    The B-52`s - Love Shack
    Andre Rieu - Kalinka
    Domingo, Netrebko & Villazón - Dein Ist Mein Ganzes Herz


    [​IMG]

    Mã:
    DISC INFO:
    
    Disc Title:     DTS 8
    Disc Size:      24,511,627,775 bytes
    Protection:     AACS
    BD-Java:        No
    BDInfo:         0.5.8
    
    PLAYLIST REPORT:
    
    Name:                   00008.MPLS
    Length:                 0:07:32.118 (h:m:s.ms)
    Size:                   1,761,957,888 bytes
    Total Bitrate:          31.18 Mbps
    [​IMG]

    Mã:
    VIDEO:
    
    Codec                   Bitrate             Description
    -----                   -------             -----------
    MPEG-4 AVC Video        26875 kbps          1080i / 23.976 fps / 16:9 / High Profile 4.1
    
    AUDIO:
    
    Codec                           Language        Bitrate         Description
    -----                           --------        -------         -----------
    DTS-HD Master Audio             English         2719 kbps       5.1 / 48 kHz / 2719 kbps / 16-bit (DTS Core: 5.1 / 48 kHz / 1509 kbps / 16-bit)
    
    SUBTITLES:
    
    Codec                           Language        Bitrate         Description
    -----                           --------        -------         -----------
    Presentation Graphics           English         1.788 kbps                 
    
    FILES:
    
    Name            Time In         Length          Size            Total Bitrate
    ----            -------         ------          ----            -------------
    00008.M2TS      0:00:00.000     0:07:32.118     1,761,957,888   31,174     
    
    CHAPTERS:
    
    Number          Time In         Length          Avg Video Rate  Max 1-Sec Rate  Max 1-Sec Time  Max 5-Sec Rate  Max 5-Sec Time  Max 10Sec Rate  Max 10Sec Time  Avg Frame Size  Max Frame Size  Max Frame Time
    ------          -------         ------          --------------  --------------  --------------  --------------  --------------  --------------  --------------  --------------  --------------  --------------
    1               0:00:00.000     0:07:32.118     26,877 kbps     47,993 kbps     00:07:09.887    38,749 kbps     00:01:33.092    36,428 kbps     00:03:57.695    140,126 bytes   591,505 bytes   00:04:13.378
    Dung Lượng: 22.77 GB

    fshare.vn.png

    Nhấn nút Cảm ơn (dưới chân bài) để thấy link!


    Pass: TonytruongHDSG​

    Nguồn: ST- hbinhlove2003

    =============================================================================

    DTS Blu-ray Music Demo Disc 9 2013 1080i Blu-ray AVC DTS-HD MA 7.1

    koiEPaw.jpg
    UBFrTN7.jpg
    DYiAyPj.jpg

    [​IMG]

    Mã:
    Reference quality DTS demonstration Blu-ray disc. For testing and demonstrating your surround system.
    Includes more than 2 hours of great sounding pop, rock, jazz & hard rock music
    
    BDMV and Certificate folders for burning on BD-25 with Blu-Ray burner
    or for playing with for example Arcsoft Total Media Theatre or other BD PC players.
    VLC Player also plays individual tracks in BDMV/STREAM folder.
    
    Without any copy or regional protection. With Title Menu and Auto-Loop function for In-store demo. Cover and Disc Label for printing included.
    
    All clips on this disc were included in their original form and unmanipulated,
    so please be aware of the volume diferences between the clips.
    
    If you don't own an Blu-Ray burner, you can easily and very quick convert
    individual .m2ts clips (in folder BDMV-STREAM) without re-encoding to .mkv with MKVToolnix.
    MKVToolnix is free software - http://www.videohelp.com/tools/MKVtoolnix
    Those .mkv files are then playable from external HDD in all Blu-Ray and multimedia players
    and even on most newer TV's with DTS support (Samsung, LG & Panasonic TV's - models from 2012 and up and Sony's from 2013 and up)
    
    Audio Codecs : DTS-HD Master Audio 7.1 & 5.1  & DTS Surround 5.1
    Video Codecs  Full HD uncompressed h.264
    except tracks 11 & 23 contains upscaled SD video
    [​IMG]

    Mã:
    Contains following tracks :
    
    Christopher Tin - Baba Yetu
    Acroamatic - Almost Heaven 7.1
    Lee Ritenour - Is It You
    Chieli Minucci - Daybreak 7.1
    Fitz And The Tantrums - MoneyGrabber 7.1
    Pat Metheny - Overture
    Blue Man Group - Up To The Roof
    Steven Wilson - Postcard
    Tarja Turunen - Until My last Breath
    Heart - Stairway To Heaven
    Leonard Cohen - In My Secret Life
    Peter Gabriel - In Your Eyes
    Andrea Bocelli - Your Love
    OMD - Joan Of Arc (Maid Of Orleans)
    Talking Heads - Psycho Killer
    Dire Straits - Walk Of Life  (audio only track)
    Bryan Ferry - All Along The Watchtower
    Led Zeppelin - Kashmir
    Slash feat. Myles Kennedy - Paradise City
    Pixies - Gigantic
    Mumford & Sons - I Will Wait
    Coldplay feat  Rihanna - Princess Of China
    R.E.M. - Losing My Religion
    DTS History

    Dung Lượng: 23.1 GB

    fshare.vn.png

    Nhấn nút Cảm ơn (dưới chân bài) để thấy link!


    Pass: TonytruongHDSG​

    Nguồn: ST Torrent- laptrinhtinhyeu305

    =============================================================================

    DTS Blu-ray Music Demo Disc 10 - 1080i Blu-ray AVC DTS-HD MA 5.1

    [​IMG]

    [​IMG]

    [​IMG]

    [​IMG]
    Mã:
    Reference quality DTS demonstration Blu-ray disc. For testing and demonstrating your surround system.
    Includes more than 2 hours of great sounding pop, rock, hard rock & indie music :
    
    Chris Botti, Sting & Josh Groban - Shape Of My Heart 7.1;
    Scorpions - The Best Is Yet To Come;
    Joe Cocker - Fire It Up;
    Cream - Sunshine Of Your Love;
    Bryan Ferry - Love Is The Drug;
    Def Leppard - Pour Some Sugar On Me;
    Queen - One Vision;
    Mumford & Sons - The Cave;
    Muse - Plug In Baby;
    Red Hot Chili Peppers - Tell Me Baby;
    Linkin Park - What I've Done;
    Pink - Just Give Me A Reason;
    Lady Antebellum - Need You Now;
    Smashing Pumpkins - Disarm;
    Rolling Stones - You Can`t Always Get What You Want;
    Blue Man Group - Time To Start;
    Robbie Williams - Go Gentle;
    Leona Lewis - Forgive Me;
    A-ha - The Living Daylights;
    Duran Duran - The Reflex;
    George Michael - Freedom '90;
    Michael Jackson - The Way You Make Me Feel;
    Bee Gees - To Love Somebody;
    Jean Michel Jarre - Aero;
    Phil Collins - (Love Is Like A) Heatwave;
    Julieta Venegas & Gustavo Santaolalla - Algún Día;
    UB40 - (I Can`t Help) Falling In Love With You;
    Loreena McKennitt - Penelope's Song;
    Genesis - No Son Of Mine;
    Pink Floyd - Time 4.1;
    Dung Lượng: 23.08 GB

    fshare.vn.png

    Nhấn nút Cảm ơn (dưới chân bài) để thấy link!


    Pass: TonytruongHDSG​

    Nguồn: ST- Torrent- laptrinhtinhyeu305

    =============================================================================

    DTS Demo Music Blu-Ray Disc.11 DTS-HD MA BD-25 5.1-7.1

    [​IMG]

    [​IMG]

    [​IMG]

    [​IMG]

    Mã:
    [COLOR="#000080"]Reference quality DTS demonstration Blu-ray disc. For testing and demonstrating your surround system.
    Includes more than 2 hours of great sounding indie, pop, rock, hard rock & classical music :
    
    
    BDMV and Certificate folders for burning on BD-25 with Blu-Ray burner
    or for playing with for example Arcsoft Total Media Theatre or other BD PC players.
    VLC Player also plays individual tracks in BDMV/STREAM folder.
    
    Without any copy or regional protection. With Title Menu and Auto-Loop function for In-store demo.
    Cover and Disc Label for printing included.
    
    All clips on this disc were included in their original form and unmanipulated,
    so please be aware of the volume diferences between the clips.
    
    If you don't own an Blu-Ray burner, you can easily and very quick convert
    individual .m2ts clips (in folder BDMV-STREAM) without re-encoding to .mkv with MKVToolnix.
    MKVToolnix is free software - http://www.videohelp.com/tools/MKVtoolnix
    Those .mkv files are then playable from external HDD in all Blu-Ray and multimedia players
    and even on most newer TV's with DTS support (Samsung, LG & Panasonic TV's - models from 2012 and up and Sony's from 2013 and up)
    
    Audio Codecs : DTS-HD Master Audio 7.1 & 5.1  & DTS 5.1
    Video Codecs  Full HD uncompressed h.264
    except tracks 19 contains upscaled SD video[/COLOR]
    Dung Lượng: 23.66 GB

    fshare.vn.png

    Nhấn nút Cảm ơn (dưới chân bài) để thấy link!


    Pass: TonytruongHDSG​

    Nguồn: ST- Torrent- laptrinhtinhyeu305
     
    Chỉnh sửa cuối: 26/2/16
  4. thinhkappa

    thinhkappa Well-Known Member

    Tham gia ngày:
    11/5/11
    Bài viết:
    12,704
    Đã được cảm ơn:
    983
    Nơi ở:
    Việt Nam
    Ðề: [Audio Singer/Songwriter) DTS chuẩn Bluray ] DTS Demo 2013 2D.3D BluRay.1080p.AVC.DTS-HDMA 5.1 Collections

    Nhạc này test dàn là chuẩn đây , thanks a chia sẻ.
     
  5. hbinhlove2003

    hbinhlove2003 Well-Known Member

    Tham gia ngày:
    22/8/09
    Bài viết:
    13,117
    Đã được cảm ơn:
    34,849
    Giới tính:
    Nam
    Nghề nghiệp:
    IT
    Nơi ở:
    VN
    Ðề: [Audio Singer/Songwriter) DTS chuẩn Bluray ] DTS Demo 2013 2D.3D BluRay.1080p.AVC.DTS-HDMA 5.1 Collections

    Nó mới ra 8 đĩa thôi anh hehe :D
     
  6. tonytruong

    tonytruong Super Moderators

    Tham gia ngày:
    26/11/09
    Bài viết:
    22,402
    Đã được cảm ơn:
    14,463
    Giới tính:
    Nam
    Nơi ở:
    Việt Nam
    Ðề: [Audio Singer/Songwriter) DTS chuẩn Bluray ] DTS Demo 2013 2D.3D BluRay.1080p.AVC.DTS-HDMA 5.1 Collections

    DTS Blu-ray Music Demo Disc 14 2013 2D.3D 1080p.AVC.DTS-HD MA7.1

    [​IMG]

    [​IMG]

    [​IMG]

    [​IMG]
    Mã:
    [B]Movies:[/B]
    
    [COLOR="#800000"]DTS Orchestra Trailer (0:19) DTS-HD MA 7.1
    
    The Chronicles Of Narnia: Prince Caspian (2:11) DTS-HD MA 7.1
    
    Twilight (1:28) DTS-HD MA 5.1
    
    Baraka (1:31) DTS-HD MA 5.1
    
    Sleeping Beauty (1:31) DTS-HD MA 7.1
    
    Drumline (5:19) DTS-HD MA 5.1
    
    Band Of Brothers (2:44) DTS-HD MA 5.1
    
    Bolt (1:48) DTS-HD MA 6.1
    
    The Incredible Hulk (2:42) DTS-HD MA 5.1
    
    Hellboy II: The Golden Army (2:58) DTS-HD MA 7.1
    
    DTS SFX Trailer (0:19) DTS-HD MA 7.1
    
    [B]Music:[/B]
    
    Kanye West - Touch The Sky (4:15) DTS-HD MA 5.1
    
    Gloriana - Wild At Heart (3:45) DTS-HD MA 7.1
    
    Iron Maiden - Fear Of The Dark (8:58) DTS-HD MA 5.1
    
    Mozart: Violin Concerto In D Major - Allegro (9:14) DTS-HD MA 5.1
    
    Talking Heads - Life During Wartime (5:49) DTS-HD MA 5.1
    
    Rusty Truck - Cold Ground (4:21) DTS-HD MA 7.1
    
    Steven Wilson - Salvaging (8:23) DTS-HD MA 7.1
    
    Rush - Far Cry (5:23) DTS-HD MA 5.1
    
    King Crimson - Frame By Frame (5:07) DTS-HD MA 7.1[/COLOR]
    
    [B]Extras:[/B]
    
    DTS-HD 7.1 - Total Immersion (0:47) DTS-HD MA 7.1
    
    DTS Car Promotional Video (2:03) DTS-HD MA 7.1
    
    DTS Ultra PC Promotional Video (1:15) DTS-HD MA 7.1
    [​IMG]
    Mã:
    [COLOR="#2F4F4F"]Offerer: DTS Entertainment
    Produced: 2010
    Running Time: 80min.
    Format: 1080/60i & 24p
    Video Codec: AVC & MPEG-2
    Type: BD-25
    Size: 17.1GB
    Region Code: A,B,C
    Packing: Paper Sleeve[/COLOR]
    Dung Lượng: 17.16 GB

    fshare.vn.png

    Nhấn nút Cảm ơn (dưới chân bài) để thấy link!


    Pass: TonytruongHDSG​

    Nguồn: ST- Torrent- laptrinhtinhyeu305

    =============================================================================

    DTS Blu-ray Music Demo Disc 15 2013 1080i Blu-ray AVC DTS-HD MA 5.1

    [​IMG]

    [​IMG]

    [​IMG]

    [​IMG]
    Mã:
    [COLOR="#800000"][B]Offerer[/B]: DTS Entertainment
    Produced: 2010
    Running Time: 87min.
    Format: 1080/60i & 24p
    Video Codec: AVC
    Type: BD-25
    
    [B]Movies:[/B]
    
    - DTS Living World Of Audio Trailer.(0:49).DTS-HD MA 7.1
    - ThefTwilight Saga: New Moon.(2:26).DTS-HD MA 5.1
    - Despicable Me.(2:10).DTS-HD MA 5.1
    - Apocalypse Now Redux.(1:32).DTS-HD MA 5.1
    - Robin Hood.(1:03).DTS-HD MA 5.1
    - Astro Boy.(2:55).DTS-HD MA 5.1
    - ThefWolfman.(1:19).DTS-HD MA 5.1
    - ThefThin Red Line.(2:59).DTS-HD MA 5.1
    - Ige Age: Dawn Of ThefDinosaurs.(3:09).DTS-HD MA 7.1
    - ThefHurt Locker.(3:52).DTS-HD MA 5.1
    - ThefRocky Horror Picture Show.(4:27).DTS-HD MA 7.1
    
    [B]Music:[/B]
    
    - U2 - City Of Blinding Lights.(5:47).DTS-HD MA 5.1
    - ThefPretenders - Boots Of Chinese Plastic.(3:10).DTS-HD MA 5.1
    - Tom Petty And ThefHeartbreakers - First Flash Of Freedom.(7:02).DTS-HD MA 5.1
    - When You're Strange: A Film About ThefDoors.(3:02).DTS-HD MA 5.1
    - Ole Bull: Concerto Fantastico - Allegro Affetuoso.(La Notte)..(8:30).DTS-HD MA 7.1
    - Jeff Beck - Led Boots.(4:38).DTS-HD MA 5.1
    - Rooney - Can't Get Enough.(3:14).DTS-HD MA 7.1
    - Porcupine Tree - Wedding Nails.(5:41).DTS-HD MA 5.1
    - Diplom - Folk Suite For Fiddle And String Orchestra.(4:13).DTS-HD MA 7.1
    - Tomoyasu Hotei - Battle Without Honor Or Humanity.(3:37).DTS-HD MA 5.1
    
    [B]Extras:[/B]
    
    - DTS Living World Of Audio Trailer.(2D And 3D Versions)..(0:49).DTS-HD MA 7.1
    - DTS Total Immersion Promotional Video.(0:47).DTS-HD MA 7.1
    - DTS War Promotional Video.(1:03).DTS-HD MA 7.1
    - DTS Sound Check 7.1.(4:18).DTS-HD MA 7.1
    - DTS Sound Check 5.1.(3:25).DTS-HD MA 5.1[/COLOR]
    Dung Lượng: 18.62 GB

    fshare.vn.png

    Nhấn nút Cảm ơn (dưới chân bài) để thấy link!



    Pass: TonytruongHDSG​

    Nguồn: ST - hbinhlove2003

    =============================================================================

    DTS Blu-ray Music Demo Disc 16 2013 1080i Blu-ray AVC DTS-HD MA 5.1

    [​IMG]

    [​IMG]

    [​IMG]

    [​IMG]
    Mã:
    2D:
    
    [COLOR="#800000"]Tron: Legacy (2:25) DTS-HD MA 7.1
    
    Red: Sepecial Edition (3:49) DTS-HD MA 5.1
    
    X-Men: First Class (2:00) DTS-HD MA 5.1
    
    Fitz And The Tantrums - MoneyGrabber (3:09) DTS-HD MA 7.1
    
    Black Swan (2:13) DTS-HD MA 5.1
    
    Peter Gabriel - Red Rain (5:30) DTS-HD MA 5.1
    
    The Twilight Saga: Eclipse (2:10) DTS-HD MA 5.1
    
    Sucker Punch (2:01) DTS-HD MA 5.1
    
    Tangled (2:33) DTS-HD MA 7.1
    
    Rio (2:40) DTS-HD MA 5.1
    
    The Lion King (1:40) DTS-HD MA 7.1
    
    Green Lantern (1:54) DTS-HD MA 5.1
    
    Rush - Tom Sawyer (4:45) DTS-HD MA 5.1
    
    Source Code (2:25) DTS-HD MA 5.1
    
    Jurassic Park (2:01) DTS-HD MA 7.1
    
    Christopher Tin - Baba Yetu (3:33) DTS-HD MA 7.1
    
    Forsenses II - Acroamactic - Almost Heaven (3:28) DTS-HD MA 7.1
    
    The Good Listeners - Isolation Booth (6:15) DTS-HD MA 5.1
    
    3D:
    
    DTS Animated Logo (0:22) DTS-HD MA 7.1
    
    Tron: Legacy (2:25) DTS-HD MA 7.1
    
    Peter Gabriel - Red Rain (5:30) DTS-HD MA 5.1
    
    Tangled (2:33) DTS-HD MA 7.1
    
    Rio (2:40) DTS-HD MA 5.1
    
    The Lion King (1:40) DTS-HD MA 7.1
    
    DTS Paint Symphony (1:19) DTS-HD MA 7.1[/COLOR]
    
    [B]Extras:[/B]
    
    [COLOR="#800000"]Welcome To Jurassic Park (1:37) DTS-HD MA 5.1
    
    DTS Animated Logo (0:21) DTS-HD MA 7.1
    
    DTS Paint Symphony (1:18) DTS-HD MA 7.1
    
    DTS Sound Check 7.1 (4:18) DTS-HD MA 7.1
    
    DTS Sound Check 5.1 (3:25) DTS-HD MA 5.1[/COLOR]
    [​IMG]
    Mã:
    [COLOR="#2F4F4F"]Offerer: DTS Entertainment
    Produced: 2012
    Running Time: 82min.
    Format: 1080/24p
    Video Codec: AVC-MVC
    Type: BD-25
    Size: 18.5GB
    Region Code: A,B,C
    Packing: Amaray / Paper Sleeve[/COLOR]
    
    Dung Lượng:18.56

    fshare.vn.png

    Nhấn nút Cảm ơn (dưới chân bài) để thấy link!


    Pass: TonytruongHDSG​

    Nguồn: ST Torrent- laptrinhtinhyeu305

    =============================================================================

    DTS Blu-ray Music Demo Disc 17 2013 2D.3D 1080p.AVC.DTS-HD MA7.1

    [​IMG]

    [​IMG]

    [​IMG]

    [​IMG]
    Mã:
    [B]2013 DTS Blu-Ray Demo Disc Vol.17[/B]
    
    [COLOR="#800000"]The Hunger Games (2:19) DTS-HD MA 7.1
    
    Prometheus - The Cave (2:55) DTS-HD MA 7.1
    
    Sherlock Holmes: A Game Of Shadows (2:14) DTS-HD MA 5.1
    
    Snow White & The Huntsman (3:27) DTS-HD MA 7.1
    
    Safe House (4:54) DTS-HD MA 5.1
    
    Battleship (2:23) DTS-HD MA 5.1
    
    Prometheus - The Storm (3:34) DTS-HD MA 7.1
    
    Wrath Of The Titans (2:08) DTS-HD MA 5.1
    
    Harry Potter And The Deathly Hallows Part 2 (2:13) DTS-HD MA 5.1
    
    Dr. Seuss' The Lorax (3:56) DTS-HD MA 5.1
    
    E.T. The Extra-Terrestrial (1:19) DTS-HD MA 7.1
    
    Singin' In The Rain (2:25) DTS-HD MA 5.1[/COLOR]
    
    [B]Movies In 3D:[/B]
    
    [COLOR="#000080"]Prometheus - The Cave 3D (2:55) DTS-HD MA 7.1
    
    Dr. Seuss' The Lorax 3D (3:40) DTS-HD MA 5.1
    
    Prometheus - The Storm 3D (3:34) DTS-HD MA 7.1
    
    [B]Music:[/B]
    
    Owl City - Deer In The Headlights (3:42) DTS-HD MA 5.1
    
    Minus The Bear - Listing (3:46) DTS-HD MA 7.1
    
    Of Montreal - Spiteful Intervention (3:40) DTS-HD MA 7.1
    
    JJAMZ - Suicide Pact (4:45) DTS-HD MA 5.1
    
    The Pretenders - Brass In Pocket (3:22) DTS-HD MA 5.1
    
    Sea Wolf - Old Friend (4:11) DTS-HD MA 7.1
    
    Queen - Another One Bites The Dust (4:19) DTS-HD MA 5.1
    
    Royal Teeth - Wild (4:48) DTS-HD MA 7.1
    
    The Black Crowes - Hey Grandma (3:57) DTS-HD MA 5.1
    
    ZZ Top - Sharp Dressed Man (4:49) DTS-HD MA 5.1[/COLOR]
    
    [B]DTS Neo:X Optimized:[/B]
    
    [COLOR="#2F4F4F"]Dredd - DTS Sound Check (2:11) DTS-HD MA 7.1 / Neo:X 11.1
    
    Minus The Bear - Listing (3:46) DTS-HD MA 7.1
    
    DTS Anthem (0:46) DTS-HD MA 7.1
    
    Royal Teeth - Wild (4:48) DTS-HD MA 7.1[/COLOR]
    
    [B]Extras:[/B]
    
    [COLOR="#4B0082"]Dredd - DTS Sound Check (2:01) DTS-HD MA 7.1 / Neo:X 11.1
    
    Dredd - DTS Sound Check (1:37) DTS-HD MA 7.1
    
    Dredd - DTS Sound Check (1:24) DTS-HD MA 5.1
    
    The Hunger Games - DTS Sound Check (1:27) DTS-HD MA 7.1
    
    The Hunger Games - DTS Sound Check (1:14) DTS-HD MA 5.1
    
    DTS Anthem (0:46) DTS-HD MA 7.1[/COLOR]
    [​IMG]
    Mã:
    [COLOR="#800000"]Offerer: DTS Entertainment
    Produced: 2013
    Running Time: 108min.
    Format: 1080/60i & 24p
    Video Codec: AVC-MVC
    Type: BD-25
    Size: 21.0GB
    Region Code: A,B,C
    Packing: Paper Sleeve[/COLOR]
    Dung Lượng: 24.85 GB

    fshare.vn.png

    Nhấn nút Cảm ơn (dưới chân bài) để thấy link!


    Pass: TonytruongHDSG​

    Nguồn: hdvnbits

    =============================================================================

    DTS Blu-ray Demo Disc 18 2014 2D 3D BluRay 1080p AVC DTS-HDMA7.1

    [​IMG]

    [​IMG]

    [​IMG]

    [​IMG]

    2014 DTS Blu-Ray Demo Disc Vol.18

    Mã:
    [COLOR="#000080"][B]Movies:[/B]
    
    Life Of Pi (3:13) DTS-HD MA 7.1
    
    Pacific Rim (1:19) DTS-HD MA 5.1
    
    Skyfall (1:48) DTS-HD MA 5.1
    
    Jack The Giant Slayer (2:21) DTS-HD MA 5.1
    
    Les Misérables (1:29) DTS-HD MA 7.1
    
    Ice Age: Continental Drift (2:02) DTS-HD MA 7.1
    
    The Dark Knight Rises (2:03) DTS-HD MA 5.1
    
    The Bourne Legacy (3:14) DTS-HD MA 7.1
    
    Epic (2:40) DTS-HD MA 7.1
    
    Oblivion (1:39) DTS-HD MA 7.1
    
    Gangster Squad (1:06) DTS-HD MA 5.1
    
    3D:
    
    Life Of Pi (3:13) DTS-HD MA 7.1
    
    Sugar Glyder - Lost In The Woods (3:25) DTS-HD MA 7.1
    
    Epic (2:40) DTS-HD MA 7.1
    
    Ice Age: Continental Drift (2:02) DTS-HD MA 7.1[/COLOR]
    
    [COLOR="#006400"][B]Music:[/B]
    
    Silversun Pickups - Dots And Dashes (Enough Already) (5:18) DTS-HD MA 7.1
    
    Sick Puppies - There's No Going Back (3:43) DTS-HD MA 7.1
    
    Generationals - Put A Light On (3:54) DTS-HD MA 7.1
    
    Sugar Glyder - Lost In The Woods (3:25) DTS-HD MA 7.1
    
    Kita Klane - The Enemy (4:13) DTS-HD MA 7.1
    
    Dave Stewart - Every Single Night (7:17) DTS-HD MA 7.1
    
    Extras:
    
    DTS Sound Check (4:18) DTS-HD MA 7.1
    
    DTS Sound Check (3:25) DTS-HD MA 5.1
    
    Dave Stewart And DTS - Behind The Scenes (3:16) DTS-HD MA 2.0
    
    DTS Anthem (0:43) DTS-HD MA 7.1[/COLOR]
    [​IMG]
    Mã:
    Offerer: DTS Entertainment
    Produced: 2014
    Running Time: 75min.
    Format: 1080/24p
    Video Codec: AVC-MVC
    Type: BD-25
    Size: 20.5GB
    Region Code: A,B,C
    Packing: Paper Sleeve
    Dung Lượng: 20.51 GB

    fshare.vn.png

    Nhấn nút Cảm ơn (dưới chân bài) để thấy link!


    Pass: TonytruongHDSG​
     
    Chỉnh sửa cuối: 26/2/16
  7. laptrinhtinhyeu305

    laptrinhtinhyeu305 Well-Known Member

    Tham gia ngày:
    3/3/12
    Bài viết:
    1,176
    Đã được cảm ơn:
    1,020
    Giới tính:
    Nam
    Nghề nghiệp:
    Tự Do
    Nơi ở:
    HCMC
    Ðề: [Audio Singer/Songwriter) DTS chuẩn Bluray ] DTS Demo 2013 2D.3D BluRay.1080p.AVC.DTS-HDMA 5.1 Collections

    em có cả bộ 8 dic này thêm vào đó là dic 14 16 17 và 1 dic demo Digital audio ( true HD )
     
  8. laptrinhtinhyeu305

    laptrinhtinhyeu305 Well-Known Member

    Tham gia ngày:
    3/3/12
    Bài viết:
    1,176
    Đã được cảm ơn:
    1,020
    Giới tính:
    Nam
    Nghề nghiệp:
    Tự Do
    Nơi ở:
    HCMC
    Ðề: [Audio Singer/Songwriter) DTS chuẩn Bluray ] DTS Demo 2013 2D.3D BluRay.1080p.AVC.DTS-HDMA 5.1 Collections

    dù sao cung cám ơn bác đã kéo lên cho anh em mở rộng tầm mắt mặc dù trong HDD em có rồi
     
  9. tonytruong

    tonytruong Super Moderators

    Tham gia ngày:
    26/11/09
    Bài viết:
    22,402
    Đã được cảm ơn:
    14,463
    Giới tính:
    Nam
    Nơi ở:
    Việt Nam
    Ðề: [Audio Singer/Songwriter) DTS chuẩn Bluray ] DTS Demo 2013 2D.3D BluRay.1080p.AVC.DTS-HDMA 5.1 Collections

    Xin dời lên trang đầu #1, Thanks
     
    Chỉnh sửa cuối: 10/12/13
  10. tonytruong

    tonytruong Super Moderators

    Tham gia ngày:
    26/11/09
    Bài viết:
    22,402
    Đã được cảm ơn:
    14,463
    Giới tính:
    Nam
    Nơi ở:
    Việt Nam
    Ðề: [Audio Singer/Songwriter) DTS chuẩn Bluray ] DTS Demo 2013 2D.3D BluRay.1080p.AVC.DTS-HDMA 5.1 Collections

    Cám ơn bạn cmt, mình không có từ Disc 9 đến Disc 16, vậy Bạn tiếp bước chia sẽ với AE Disc 14+ Disc 16 đi nhé, Thanks :)
     
  11. laptrinhtinhyeu305

    laptrinhtinhyeu305 Well-Known Member

    Tham gia ngày:
    3/3/12
    Bài viết:
    1,176
    Đã được cảm ơn:
    1,020
    Giới tính:
    Nam
    Nghề nghiệp:
    Tự Do
    Nơi ở:
    HCMC
    Ðề: [Audio Singer/Songwriter) DTS chuẩn Bluray ] DTS Demo 2013 2D.3D BluRay.1080p.AVC.DTS-HDMA 5.1 Collections

    ngoài 8 vol dic tren em chỉ có dic 14 16 17 và 1 dic demo Digital audio ( true HD ) thôi bác bác ak, tất cả các díc này sau khi download torrents về en đều chỉ để lại những bài hát thôi bác ak chứ ko để lại nguyên con. ( tức những bài hát MV hoặc bài hát từ live cut ra thôi bác ak chứ em ko để nguyên file bluray và em để nhiều chỗ trong máy tính lẫn HD WD box bên ngoài. vì dung lượng HDD em đã khá đầy rồi.

    [​IMG]


    và còn một vài chỗ khác nữa. tất cả chỗ demo đó đều là bluray có audio là DTS, DTS HDMA hoặc TrueHD
     
    quangchuongtv and vuduckhai like this.
  12. tonytruong

    tonytruong Super Moderators

    Tham gia ngày:
    26/11/09
    Bài viết:
    22,402
    Đã được cảm ơn:
    14,463
    Giới tính:
    Nam
    Nơi ở:
    Việt Nam
    Ðề: [Audio Singer/Songwriter) DTS chuẩn Bluray ] DTS Demo 2013 2D.3D BluRay.1080p.AVC.DTS-HDMA 5.1 Collections

    Tiếc nhỉ.? phải chi còn để nguyên gốc up chia sẽ cho AE thì tốt quá rồi, Thanks
     
  13. sonymylove

    sonymylove Member

    Tham gia ngày:
    31/5/09
    Bài viết:
    143
    Đã được cảm ơn:
    11
    Ðề: [Audio Singer/Songwriter) DTS chuẩn Bluray ] DTS Demo 2013 2D.3D BluRay.1080p.AVC.DTS-HDMA 5.1 Collections

    các bác cho em hỏi em ko có AVC DTS-HD MA 5.1 vi ko có amp có HDMI kéo cai này về có nghe đc ko ạ
     
    quangchuongtv cảm ơn bài này.
  14. tonytruong

    tonytruong Super Moderators

    Tham gia ngày:
    26/11/09
    Bài viết:
    22,402
    Đã được cảm ơn:
    14,463
    Giới tính:
    Nam
    Nơi ở:
    Việt Nam
    Ðề: [Audio Singer/Songwriter) DTS chuẩn Bluray ] DTS Demo 2013 2D.3D BluRay.1080p.AVC.DTS-HDMA 5.1 Collections

    Hộp thư bác đầy rồi, không xóa đi không ai trả lời bác được.!

    P/s Không hiểu rõ ý bác hỏi lắm.? Nếu bác không có đầu HD thì vẫn nghe và xem trên máy tính được mà, nhưng nếu máy tính của bác không có souncard 5.1 thì e rằng truy xuất âm thanh không hết được công năng của nó.! để có cao nhân nào chuyên về phần này sẽ vào hướng dẫn bác rõ hơn nhé, Thân
     
  15. truongsoncb

    truongsoncb Member

    Tham gia ngày:
    5/5/10
    Bài viết:
    68
    Đã được cảm ơn:
    6
    Ðề: [Audio Singer/Songwriter) DTS chuẩn Bluray ] DTS Demo 2013 2D.3D BluRay.1080p.AVC.DTS-HDMA 5.1 Collections

    bạn ơi giúp mình với dow về disc 1 song không mởi được cả laptop và Box HD. làm thế nào để xem được giúp mình với pm lại cho mình hoặc gửi vào [email protected] xin cam ơn.
     
    quangchuongtv cảm ơn bài này.
  16. sonymylove

    sonymylove Member

    Tham gia ngày:
    31/5/09
    Bài viết:
    143
    Đã được cảm ơn:
    11
    Ðề: [Audio Singer/Songwriter) DTS chuẩn Bluray ] DTS Demo 2013 2D.3D BluRay.1080p.AVC.DTS-HDMA 5.1 Collections

    em ko có amp có đường HDMI có nghiã là ko xem đc DTS-HD MA em dow bản này về có nghe được ko ạ
     
    lungthang and quangchuongtv like this.
  17. fostina

    fostina Well-Known Member

    Tham gia ngày:
    7/4/09
    Bài viết:
    574
    Đã được cảm ơn:
    137
    Nghề nghiệp:
    Sales and Marketing
    Nơi ở:
    Vietnamese
    Ðề: [Audio Singer/Songwriter) DTS chuẩn Bluray ] DTS Demo 2013 2D.3D BluRay.1080p.AVC.DTS-HDMA 5.1 Collections

    file nay kg cho down chia nho bang IDM bác ơi, không biết có cách nào down cho nhanh kg , mình cung dung tài khoản vip cua fshare
     
    quangchuongtv cảm ơn bài này.
  18. themask

    themask Well-Known Member

    Tham gia ngày:
    11/12/08
    Bài viết:
    1,136
    Đã được cảm ơn:
    30,345
    Ðề: [Audio Singer/Songwriter) DTS chuẩn Bluray ] DTS Demo 2013 2D.3D BluRay.1080p.AVC.DTS-HDMA 5.1 Collections

    Tool của Fshare xài cũng ổn lắm bạn. Hay thử JDownloader cũng oki :)
     
    quangchuongtv cảm ơn bài này.
  19. fostina

    fostina Well-Known Member

    Tham gia ngày:
    7/4/09
    Bài viết:
    574
    Đã được cảm ơn:
    137
    Nghề nghiệp:
    Sales and Marketing
    Nơi ở:
    Vietnamese
    Ðề: [Audio Singer/Songwriter) DTS chuẩn Bluray ] DTS Demo 2013 2D.3D BluRay.1080p.AVC.DTS-HDMA 5.1 Collections

    Mình down bằng IDM mà, không biết tại sao nó chỉ cho down 1 link hà, không chia nhỏ ra chắc do file quá, mong cao nhân chỉ giáo
     
    quangchuongtv cảm ơn bài này.
  20. fostina

    fostina Well-Known Member

    Tham gia ngày:
    7/4/09
    Bài viết:
    574
    Đã được cảm ơn:
    137
    Nghề nghiệp:
    Sales and Marketing
    Nơi ở:
    Vietnamese
    Ðề: [Audio Singer/Songwriter) DTS chuẩn Bluray ] DTS Demo 2013 2D.3D BluRay.1080p.AVC.DTS-HDMA 5.1 Collections

    Hay bác nào có file này ở gần Nơ Trang Long Bình Thạnh mình chạy qua chép cho nhanh, mình rất thích đĩa này mà chưa có dịp nghe thử số DT của mình 0906874260 XIn Đa tạ
     

Chia sẻ trang này