[Google Drive] [Anime]Jujutsu Kaisen [BDRemux] [Vietsub]

Thảo luận trong 'Phim hoạt hình' bắt đầu bởi Vũ Thế Mạnh, 24/12/22.

  1. Vũ Thế Mạnh

    Vũ Thế Mạnh Well-Known Member

    Tham gia ngày:
    6/10/20
    Bài viết:
    316
    Đã được cảm ơn:
    1,658
    Giới tính:
    Nam
    Nghề nghiệp:
    Sinh Viên
    Nơi ở:
    Nam Định
    Chú Thuật Hồi Chiến (2020)
    [​IMG]

    Mã:
    General[/SIZE][/LEFT]
    
    
    [SIZE=5]
    [LEFT]Unique ID                                : 157864839307762739491617751950364179058 (0x76C3A9809F4C76D7C3850C871F6EFA72)
    Complete name                            : Jujutsu Kaisen S01E01 - Ryomen Sukuna.mkv
    Format                                   : Matroska
    Format version                           : Version 4
    File size                                : 6.13 GiB
    Duration                                 : 23 min 56 s
    Overall bit rate mode                    : Variable
    Overall bit rate                         : 36.7 Mb/s
    Movie name                               : S01E01-TTGA
    Encoded date                             : UTC 2021-07-25 07:44:51
    Writing application                      : mkvmerge v57.0.0 ('Till The End') 64-bit
    Writing library                          : libebml v1.4.2 + libmatroska v1.6.4
    Cover                                    : Yes
    Attachments                              : Baqa.otf / Barthowheel-Regular.ttf / BIP.ttf / Boopee.ttf / Brush-Strokes.ttf / Cabin-Bold.ttf / Cabin-Bold-Italic.ttf / Cocon-Next.OTF / D3-Streetism.ttf / FolkPro-En-Bold.OTF / Janda-Manatee-Solid.ttf / KG-HAPPY-Solid.ttf / Ragnar.ttf / arial.ttf / AT-Amigo.ttf / AveriaSans-Light.ttf / cover.jpg
    Video
    ID                                       : 1
    Format                                   : AVC
    Format/Info                              : Advanced Video Codec
    Format profile                           : [email protected]
    Format settings                          : CABAC / 4 Ref Frames
    Format settings, CABAC                   : Yes
    Format settings, Reference frames        : 4 frames
    Codec ID                                 : V_MPEG4/ISO/AVC
    Duration                                 : 23 min 56 s
    Bit rate mode                            : Variable
    Bit rate                                 : 35.1 Mb/s
    Maximum bit rate                         : 40.0 Mb/s
    Width                                    : 1 920 pixels
    Height                                   : 1 080 pixels
    Display aspect ratio                     : 16:9
    Frame rate mode                          : Constant
    Frame rate                               : 23.976 (24000/1001) FPS
    Color space                              : YUV
    Chroma subsampling                       : 4:2:0
    Bit depth                                : 8 bits
    Scan type                                : Progressive
    Bits/(Pixel*Frame)                       : 0.705
    Stream size                              : 5.86 GiB (96%)
    Title                                    : Presented By TTGA@EMBER
    Default                                  : Yes
    Forced                                   : No
    Audio #1
    ID                                       : 2
    Format                                   : FLAC
    Format/Info                              : Free Lossless Audio Codec
    Codec ID                                 : A_FLAC
    Duration                                 : 23 min 56 s
    Bit rate mode                            : Variable
    Bit rate                                 : 1 444 kb/s
    Channel(s)                               : 2 channels
    Channel layout                           : L R
    Sampling rate                            : 48.0 kHz
    Frame rate                               : 11.719 FPS (4096 SPF)
    Bit depth                                : 24 bits
    Compression mode                         : Lossless
    Stream size                              : 247 MiB (4%)
    Writing library                          : libFLAC 1.2.1 (UTC 2007-09-17)
    Language                                 : Japanese
    Default                                  : Yes
    Forced                                   : No
    MD5 of the unencoded content             : 2805C5F6F682DFE59945C5FC7D40BB3C
    Audio #2
    ID                                       : 3
    Format                                   : AAC LC
    Format/Info                              : Advanced Audio Codec Low Complexity
    Codec ID                                 : A_AAC-2
    Duration                                 : 23 min 55 s
    Bit rate                                 : 128 kb/s
    Channel(s)                               : 2 channels
    Channel layout                           : L R
    Sampling rate                            : 44.1 kHz
    Frame rate                               : 43.066 FPS (1024 SPF)
    Compression mode                         : Lossy
    Delay relative to video                  : 1 s 0 ms
    Stream size                              : 21.9 MiB (0%)
    Language                                 : English
    Default                                  : No
    Forced                                   : No
    Text #1
    ID                                       : 4
    Format                                   : ASS
    Codec ID                                 : S_TEXT/ASS
    Codec ID/Info                            : Advanced Sub Station Alpha
    Duration                                 : 23 min 53 s
    Bit rate                                 : 1 351 b/s
    Frame rate                               : 0.714 FPS
    Count of elements                        : 1023
    Compression mode                         : Lossless
    Stream size                              : 236 KiB (0%)
    Title                                    : Dialogue
    Language                                 : English
    Default                                  : Yes
    Forced                                   : No
    Text #2
    ID                                       : 5
    Format                                   : ASS
    Codec ID                                 : S_TEXT/ASS
    Codec ID/Info                            : Advanced Sub Station Alpha
    Duration                                 : 22 min 50 s
    Bit rate                                 : 1 265 b/s
    Frame rate                               : 0.460 FPS
    Count of elements                        : 630
    Compression mode                         : Lossless
    Stream size                              : 212 KiB (0%)
    Title                                    : Signs & Songs
    Language                                 : English
    Default                                  : No
    Forced                                   : No
    Text #3
    ID                                       : 6
    Format                                   : ASS
    Codec ID                                 : S_TEXT/ASS
    Codec ID/Info                            : Advanced Sub Station Alpha
    Duration                                 : 23 min 53 s
    Bit rate                                 : 1 351 b/s
    Frame rate                               : 0.714 FPS
    Count of elements                        : 1023
    Compression mode                         : Lossless
    Stream size                              : 237 KiB (0%)
    Title                                    : Honorific
    Language                                 : English
    Default                                  : No
    Forced                                   : No
    Menu
    00:00:00.000                             : en:Intro
    00:00:55.950                             : en:Opening
    00:02:26.000                             : en:Part A
    00:11:44.140                             : en:Part B
    00:23:45.990                             : en:Preview
    
    [​IMG] [​IMG] [​IMG] [​IMG] [​IMG]
    Download ( 147gb):
    Nhấn nút Cảm ơn (dưới chân bài) để thấy link!
     
    Chỉnh sửa cuối: 28/3/24
  2. Messi_Barca

    Messi_Barca Well-Known Member

    Tham gia ngày:
    11/10/15
    Bài viết:
    861
    Đã được cảm ơn:
    672
    Giới tính:
    Nam
    YÊU CẦU CẤP QUYỀN KÌA BÁC
     
  3. Vũ Thế Mạnh

    Vũ Thế Mạnh Well-Known Member

    Tham gia ngày:
    6/10/20
    Bài viết:
    316
    Đã được cảm ơn:
    1,658
    Giới tính:
    Nam
    Nghề nghiệp:
    Sinh Viên
    Nơi ở:
    Nam Định
    được rồi đó bác, em gán nhầm
     
  4. kukenvip98

    kukenvip98 Member

    Tham gia ngày:
    19/11/21
    Bài viết:
    44
    Đã được cảm ơn:
    11
    Giới tính:
    Nam
    Quá ngon tks bác :D
     
  5. ilovetolive

    ilovetolive Active Member

    Tham gia ngày:
    28/9/11
    Bài viết:
    254
    Đã được cảm ơn:
    75
    Giới tính:
    Nữ
    Bạn ơi có cách nào làm trọn bộ Naruto ko mình năn nỉ đó.:(:(
     
  6. Vũ Thế Mạnh

    Vũ Thế Mạnh Well-Known Member

    Tham gia ngày:
    6/10/20
    Bài viết:
    316
    Đã được cảm ơn:
    1,658
    Giới tính:
    Nam
    Nghề nghiệp:
    Sinh Viên
    Nơi ở:
    Nam Định
    để bao giờ rảnh làm lại sau nhé bác, trước em cũng làm được 150 tập rồi mà :D:D
     
    ilovetolive cảm ơn bài này.
  7. ilovetolive

    ilovetolive Active Member

    Tham gia ngày:
    28/9/11
    Bài viết:
    254
    Đã được cảm ơn:
    75
    Giới tính:
    Nữ
    Em xem hết 150 tập rồi giờ lẽ bỏ bạn giúp mình với nhe.:(:(
     
  8. ctn10

    ctn10 Member

    Tham gia ngày:
    3/10/09
    Bài viết:
    65
    Đã được cảm ơn:
    15
    link die rồi ạ
     
  9. Vũ Thế Mạnh

    Vũ Thế Mạnh Well-Known Member

    Tham gia ngày:
    6/10/20
    Bài viết:
    316
    Đã được cảm ơn:
    1,658
    Giới tính:
    Nam
    Nghề nghiệp:
    Sinh Viên
    Nơi ở:
    Nam Định
    mai reup nhé bác
     
  10. Vũ Thế Mạnh

    Vũ Thế Mạnh Well-Known Member

    Tham gia ngày:
    6/10/20
    Bài viết:
    316
    Đã được cảm ơn:
    1,658
    Giới tính:
    Nam
    Nghề nghiệp:
    Sinh Viên
    Nơi ở:
    Nam Định

Chia sẻ trang này