[Fshare] [Anime] Heavenly Delusion (2023) - Ảo Mộng Thiên Đường S01 1080p WEB AAC2.0 HEVC-hOilOnG (Vietsub)

Thảo luận trong 'Phim hoạt hình' bắt đầu bởi dzankhanh, 5/5/23.

  1. dzankhanh

    dzankhanh Well-Known Member

    Tham gia ngày:
    9/1/23
    Bài viết:
    291
    Đã được cảm ơn:
    2,260
    Giới tính:
    Nam
    Heavenly Delusion (2023) - Tengoku Daimakyou
    Ảo Mộng Thiên Đường (2023)


    Heavenly Delusion Tengoku Daimakyou S01 1080p WEB AAC2.0 HEVC-hOilOnG

    (13/13 Tập)

    Info


    Câu chuyện được đặt trong hai thế giới riêng biệt. Tokio sống với những đứa trẻ khác trong một thế giới được bao quanh bởi một bức tường xinh đẹp, nhưng một ngày nọ, cậu nhận được một tin nhắn có nội dung: “Bạn có muốn đi ra bên ngoài của bên ngoài không?” Trong khi đó, một cậu bé tên Maru đi du lịch với một người phụ nữ lớn tuổi, tìm ra sự tồn tại ít ỏi trong một thế giới đổ nát khi họ tìm kiếm “thiên đường”.


    [​IMG]

    TRAILER


    MEDIA INFO
    General
    Unique ID : 149573300390411323161791387522753067354 (0x7086C512493673A6B43E40E66223795A)
    Complete name : Heavenly.Delusion.Tengoku.Daimakyou.S01E01.1080p.WEB.AAC2.0.HEVC-hOilOnG.mkv
    Format : Matroska
    Format version : Version 4
    File size : 1.05 GiB
    Duration : 23 min 56 s
    Overall bit rate : 6 307 kb/s
    Encoded date : UTC 2023-05-05 08:36:30
    Writing application : mkvmerge v73.0.0 ('25 or 6 to 4') 64-bit
    Writing library : libebml v1.4.4 + libmatroska v1.7.1

    Video
    ID : 1
    Format : HEVC
    Format/Info : High Efficiency Video Coding
    Format profile : Main 10@L4@Main
    Codec ID : V_MPEGH/ISO/HEVC
    Duration : 23 min 51 s
    Bit rate : 6 186 kb/s
    Width : 1 920 pixels
    Height : 1 080 pixels
    Display aspect ratio : 16:9
    Frame rate mode : Constant
    Frame rate : 23.976 (24000/1001) FPS
    Standard : NTSC
    Color space : YUV
    Chroma subsampling : 4:2:0
    Bit depth : 10 bits
    Bits/(Pixel*Frame) : 0.124
    Stream size : 1.03 GiB (98%)

    Language : Japanese
    Default : Yes
    Forced : No
    Color range : Limited
    Color primaries : BT.709
    Transfer characteristics : BT.709
    Matrix coefficients : BT.709

    Audio
    ID : 2
    Format : AAC LC
    Format/Info : Advanced Audio Codec Low Complexity
    Codec ID : A_AAC-2
    Duration : 23 min 51 s
    Bit rate : 125 kb/s
    Channel(s) : 2 channels
    Channel layout : L R
    Sampling rate : 48.0 kHz
    Frame rate : 46.875 FPS (1024 SPF)
    Compression mode : Lossy
    Stream size : 21.4 MiB (2%)
    Title : 2.0 AAC
    Language : Japanese
    Default : Yes
    Forced : No

    Text
    ID : 3
    Format : ASS
    Codec ID : S_TEXT/ASS
    Codec ID/Info : Advanced Sub Station Alpha
    Duration : 23 min 43 s
    Bit rate : 213 b/s
    Frame rate : 0.282 FPS
    Count of elements : 401
    Compression mode : Lossless
    Stream size : 37.2 KiB (0%)
    Title : [dzankhanh]
    Language : Vietnamese
    Default : Yes
    Forced : No

    IMAGE
    [​IMG]
    [​IMG]
    [​IMG]
    [​IMG]
    ........................::::::BIG THANKS TO::::::.......................
    hOilOnG Squad, mochioka, mp12365, miya2791.

    Tải Phim


    Phụ đề Việt Mux sẵn
    Nhấn nút Cảm ơn (dưới chân bài) để thấy link!

    Link Bộ Sưu Tập Anime
    Nhấn nút Cảm ơn (dưới chân bài) để thấy link!

    Inbox: https://t.me/dzankhanh
     
    Chỉnh sửa cuối: 22/7/23
  2. kukenvip98

    kukenvip98 Member

    Tham gia ngày:
    19/11/21
    Bài viết:
    44
    Đã được cảm ơn:
    11
    Giới tính:
    Nam
    Tks bác mong bác tiếp tục up bộ này nhé :D
     
    dzankhanh cảm ơn bài này.
  3. Fallenx

    Fallenx New Member

    Tham gia ngày:
    13/4/22
    Bài viết:
    19
    Đã được cảm ơn:
    9
    Giới tính:
    Nam
    Tuyệt vời, đúng bộ e cần, tks bác
     
    dzankhanh cảm ơn bài này.
  4. dzankhanh

    dzankhanh Well-Known Member

    Tham gia ngày:
    9/1/23
    Bài viết:
    291
    Đã được cảm ơn:
    2,260
    Giới tính:
    Nam
    Update tập 3
     
    narwhal cảm ơn bài này.
  5. bolaovaynhoc

    bolaovaynhoc Member

    Tham gia ngày:
    24/3/12
    Bài viết:
    36
    Đã được cảm ơn:
    8
    Update thêm ep mới đi bác. Bộ này hay thật. Tks bác
     
    dzankhanh cảm ơn bài này.
  6. dzankhanh

    dzankhanh Well-Known Member

    Tham gia ngày:
    9/1/23
    Bài viết:
    291
    Đã được cảm ơn:
    2,260
    Giới tính:
    Nam
    Em đợi có bản đẹp rồi up 1 lần luôn bác :>
    Bác yên tâm em sẽ up đủ hết.
     
    bolaovaynhoc and keubibo like this.
  7. dzankhanh

    dzankhanh Well-Known Member

    Tham gia ngày:
    9/1/23
    Bài viết:
    291
    Đã được cảm ơn:
    2,260
    Giới tính:
    Nam
    Update tập 4
     
    kukenvip98 cảm ơn bài này.
  8. dzankhanh

    dzankhanh Well-Known Member

    Tham gia ngày:
    9/1/23
    Bài viết:
    291
    Đã được cảm ơn:
    2,260
    Giới tính:
    Nam
    Update tập 5
     
    keubibo cảm ơn bài này.
  9. dzankhanh

    dzankhanh Well-Known Member

    Tham gia ngày:
    9/1/23
    Bài viết:
    291
    Đã được cảm ơn:
    2,260
    Giới tính:
    Nam
    Update tập 6
     
  10. dzankhanh

    dzankhanh Well-Known Member

    Tham gia ngày:
    9/1/23
    Bài viết:
    291
    Đã được cảm ơn:
    2,260
    Giới tính:
    Nam
    Update tập 7
     
    keubibo cảm ơn bài này.
  11. dzankhanh

    dzankhanh Well-Known Member

    Tham gia ngày:
    9/1/23
    Bài viết:
    291
    Đã được cảm ơn:
    2,260
    Giới tính:
    Nam
    Update tập 8
     
    keubibo cảm ơn bài này.
  12. dzankhanh

    dzankhanh Well-Known Member

    Tham gia ngày:
    9/1/23
    Bài viết:
    291
    Đã được cảm ơn:
    2,260
    Giới tính:
    Nam
    Update tập 9
     
    keubibo cảm ơn bài này.
  13. stckz

    stckz New Member

    Tham gia ngày:
    30/7/21
    Bài viết:
    20
    Đã được cảm ơn:
    4
    Giới tính:
    Nam
    ảo mộng thiên đường
     
  14. cbts96

    cbts96 Active Member

    Tham gia ngày:
    23/11/11
    Bài viết:
    206
    Đã được cảm ơn:
    82
    có tập mới chưa bác ơi?
     
  15. dzankhanh

    dzankhanh Well-Known Member

    Tham gia ngày:
    9/1/23
    Bài viết:
    291
    Đã được cảm ơn:
    2,260
    Giới tính:
    Nam
    Update tập 10
     
    keubibo and nhatquang_fx like this.
  16. ducanh09kt

    ducanh09kt Member

    Tham gia ngày:
    6/8/10
    Bài viết:
    40
    Đã được cảm ơn:
    9
    Tải về dần, đợi đủ 13 tập xem luôn, thanks bác!
     
  17. dzankhanh

    dzankhanh Well-Known Member

    Tham gia ngày:
    9/1/23
    Bài viết:
    291
    Đã được cảm ơn:
    2,260
    Giới tính:
    Nam
    Update tập 11
     
    keubibo, apolo4002 and nhatquang_fx like this.
  18. apolo4002

    apolo4002 Well-Known Member

    Tham gia ngày:
    14/1/18
    Bài viết:
    406
    Đã được cảm ơn:
    1,215
    Giới tính:
    Nữ
    Có 2 cuối chưa bác?
     
    keubibo cảm ơn bài này.
  19. ducanh09kt

    ducanh09kt Member

    Tham gia ngày:
    6/8/10
    Bài viết:
    40
    Đã được cảm ơn:
    9
    Cập nhật thêm chủ thớt ơi!
     
    keubibo cảm ơn bài này.
  20. dzankhanh

    dzankhanh Well-Known Member

    Tham gia ngày:
    9/1/23
    Bài viết:
    291
    Đã được cảm ơn:
    2,260
    Giới tính:
    Nam
    Update tập 12
     
    gooverine, keubibo and bolaovaynhoc like this.

Chia sẻ trang này