[Fshare] [Anime] Death Mount Death Play (2023) S01 1080p CR WEB-DL AAC2.0 H.264 hOilOnG (Vietsub)

Thảo luận trong 'Phim hoạt hình' bắt đầu bởi dzankhanh, 11/5/23.

  1. dzankhanh

    dzankhanh Well-Known Member

    Tham gia ngày:
    9/1/23
    Bài viết:
    291
    Đã được cảm ơn:
    2,188
    Giới tính:
    Nam
    Dead Mount Death Play (2023)

    Dead Mount Death Play S01 1080p CR WEB-DL AAC2.0 H.264-hOilOnG

    (12/12 Tập)

    Info


    Đó là một cuộc đọ sức trong nhiều thời đại khi người anh hùng huyền thoại đối đầu với tên gọi hồn của thần xác chết, nhưng khi bụi lắng xuống, có điều gì đó không ổn… Trong những khoảnh khắc cuối cùng của cuộc đối đầu hoành tráng của họ, phát súng cuối cùng của thần xác chết hoàn toàn bất ngờ – ma thuật tái sinh! Xuyên qua không gian và thời gian, một cậu bé tên Polka Shinoyama thức dậy với cảm giác…không còn là chính mình…… Ai có thể ngờ rằng trận chiến đỉnh cao giữa thiện và ác lại diễn ra như thế này??


    [​IMG]

    TRAILER


    MEDIA INFO
    General
    Unique ID : 4574484619023445291348865695797241516 (0x37103813D5E37877B5F12D7321C66AC)
    Complete name : Dead.Mount.Death.Play.S01E01.1080p.CR.WEB-DL.AAC2.0.H.264-hOilOnG.mkv
    Format : Matroska
    Format version : Version 4
    File size : 1.35 GiB
    Duration : 23 min 40 s
    Overall bit rate : 8 137 kb/s
    Encoded date : UTC 2023-05-11 02:59:09
    Writing application : mkvmerge v73.0.0 ('25 or 6 to 4') 64-bit
    Writing library : libebml v1.4.4 + libmatroska v1.7.1

    Video
    ID : 1
    Format : AVC
    Format/Info : Advanced Video Codec
    Format profile : High@L4
    Format settings : CABAC / 4 Ref Frames
    Format settings, CABAC : Yes
    Format settings, Reference : 4 frames
    Format settings, GOP : N=1
    Codec ID : V_MPEG4/ISO/AVC
    Duration : 23 min 40 s
    Bit rate : 8 000 kb/s
    Width : 1 920 pixels
    Height : 1 080 pixels
    Display aspect ratio : 16:9
    Frame rate mode : Constant
    Frame rate : 23.976 (24000/1001) FPS
    Color space : YUV
    Chroma subsampling : 4:2:0
    Bit depth : 8 bits
    Scan type : Progressive
    Bits/(Pixel*Frame) : 0.161
    Stream size : 1.32 GiB (98%)
    Writing library : x264 core 164
    Default : Yes
    Forced : No
    Color range : Limited
    Color primaries : BT.709
    Transfer characteristics : BT.709
    Matrix coefficients : BT.709

    Audio
    ID : 2
    Format : AAC LC
    Format/Info : Advanced Audio Codec Low Complexity
    Codec ID : A_AAC-2
    Duration : 23 min 40 s
    Bit rate : 128 kb/s
    Channel(s) : 2 channels
    Channel layout : L R
    Sampling rate : 44.1 kHz
    Frame rate : 43.066 FPS (1024 SPF)
    Compression mode : Lossy
    Stream size : 21.7 MiB (2%)
    Language : Japanese
    Default : Yes
    Forced : No

    Text #1
    ID : 3
    Format : ASS
    Codec ID : S_TEXT/ASS
    Codec ID/Info : Advanced Sub Station Alpha
    Duration : 22 min 45 s
    Bit rate : 97 b/s
    Frame rate : 0.178 FPS
    Count of elements : 243
    Compression mode : Lossless
    Stream size : 16.3 KiB (0%)
    Title : English subs
    Language : English
    Default : No
    Forced : No

    Text #2
    ID : 4
    Format : UTF-8
    Codec ID : S_TEXT/UTF8
    Codec ID/Info : UTF-8 Plain Text
    Duration : 22 min 50 s
    Bit rate : 67 b/s
    Frame rate : 0.227 FPS
    Count of elements : 311
    Stream size : 11.3 KiB (0%)
    Title : [Bilibili]
    Language : Vietnamese
    Default : Yes
    Forced : No

    IMAGE
    [​IMG]
    [​IMG]
    [​IMG]
    [​IMG]
    ............::::::BIG THANKS TO::::::...........
    hOilOnG Squad, mochioka, mp12365, miya2791.

    Tải Phim


    Phụ đề Việt Mux sẵn
    Nhấn nút Cảm ơn (dưới chân bài) để thấy link!

    Link Bộ Sưu Tập Anime
    Nhấn nút Cảm ơn (dưới chân bài) để thấy link!

    Inbox: https://t.me/dzankhanh
     
    Chỉnh sửa cuối: 29/6/23
  2. dzankhanh

    dzankhanh Well-Known Member

    Tham gia ngày:
    9/1/23
    Bài viết:
    291
    Đã được cảm ơn:
    2,188
    Giới tính:
    Nam
    Update tập 6
     
    keubibo cảm ơn bài này.
  3. dzankhanh

    dzankhanh Well-Known Member

    Tham gia ngày:
    9/1/23
    Bài viết:
    291
    Đã được cảm ơn:
    2,188
    Giới tính:
    Nam
    Update tập 7
     
    narwhal, nhatquang_fx and keubibo like this.
  4. dzankhanh

    dzankhanh Well-Known Member

    Tham gia ngày:
    9/1/23
    Bài viết:
    291
    Đã được cảm ơn:
    2,188
    Giới tính:
    Nam
    Update tập 8
     
    narwhal and keubibo like this.
  5. dzankhanh

    dzankhanh Well-Known Member

    Tham gia ngày:
    9/1/23
    Bài viết:
    291
    Đã được cảm ơn:
    2,188
    Giới tính:
    Nam
    Update tập 9
     
    keubibo and narwhal like this.
  6. dzankhanh

    dzankhanh Well-Known Member

    Tham gia ngày:
    9/1/23
    Bài viết:
    291
    Đã được cảm ơn:
    2,188
    Giới tính:
    Nam
    Update tập 10
     
    nhatquang_fx and keubibo like this.
  7. dzankhanh

    dzankhanh Well-Known Member

    Tham gia ngày:
    9/1/23
    Bài viết:
    291
    Đã được cảm ơn:
    2,188
    Giới tính:
    Nam
    Update tập 11
     
    narwhal, nhatquang_fx and keubibo like this.
  8. dzankhanh

    dzankhanh Well-Known Member

    Tham gia ngày:
    9/1/23
    Bài viết:
    291
    Đã được cảm ơn:
    2,188
    Giới tính:
    Nam
    Update tập 12
     
    Nerokg and keubibo like this.
  9. Toantnp2011

    Toantnp2011 New Member

    Tham gia ngày:
    21/5/23
    Bài viết:
    14
    Đã được cảm ơn:
    6
    Giới tính:
    Nam
    Có SS 2 chưa AD?
     
  10. thatnhanban13

    thatnhanban13 Active Member

    Tham gia ngày:
    27/11/23
    Bài viết:
    296
    Đã được cảm ơn:
    66
    Giới tính:
    Nam
    link die rồi reup lại được không bạn ơi
     
    tran-pham113 cảm ơn bài này.

Chia sẻ trang này