[Fshare] [Anime - Bluray] Jujutsu Kaisen (2020) S01+Movie 0 1080p Bluray OPUS5.1 HEVC-hOilOnG (Vietsub)

Thảo luận trong 'Phim hoạt hình' bắt đầu bởi dzankhanh, 13/5/23.

  1. dzankhanh

    dzankhanh Well-Known Member

    Tham gia ngày:
    9/1/23
    Bài viết:
    291
    Đã được cảm ơn:
    2,255
    Giới tính:
    Nam
    Jujutsu Kaisen (2020)
    Chú Thuật Hồi Chiến (2020)

    Jujutsu Kaisen S01 1080p Bluray OPUS2.0 HEVC-hOilOnG
    Jujutsu Kaisen 0 2021 1080p Bluray OPUS5.1 Dual-Audio HEVC-hOilOnG


    (Full Season 1 - 24/24 Tập + Movie 0)


    Info


    Trong một thế giới nơi những con quỷ ăn thịt người không nghi ngờ gì, những mảnh vỡ của con quỷ huyền thoại và đáng sợ Ryoumen Sukuna đã bị thất lạc và nằm rải rác. Nếu bất kỳ con quỷ nào tiêu thụ các bộ phận cơ thể của Sukuna, sức mạnh mà chúng có được có thể phá hủy thế giới như chúng ta đã biết. May mắn thay, có một ngôi trường bí ẩn của các Phù thủy Jujutsu tồn tại để bảo vệ sự tồn tại bấp bênh của người sống khỏi xác sống!Yuuji Itadori là một học sinh trung học dành cả ngày để thăm ông nội nằm liệt giường của mình. Mặc dù anh ấy trông giống như một thiếu niên bình thường của bạn, nhưng sức mạnh thể chất to lớn của anh ấy là một điều đáng chú ý! Mọi câu lạc bộ thể thao đều muốn cậu tham gia, nhưng Itadori thà đi chơi với những đứa trẻ bị trường ruồng bỏ trong Câu lạc bộ huyền bí. Một ngày nọ, câu lạc bộ quản lý để có được bàn tay của họ trên một vật thể bị nguyền rủa bị phong ấn, nhưng họ ít biết nỗi kinh hoàng mà họ sẽ gây ra khi phá vỡ phong ấn...


    [​IMG]

    TRAILER


    MEDIA INFO
    General
    Unique ID : 105516983167451060381915779579263648314 (0x4F61D4EDB8FFADB0087E1EFEEAE5023A)
    Complete name : Jujutsu.Kaisen.S01E01.1080p.Bluray.OPUS2.0.HEVC-hOilOnG.mkv
    Format : Matroska
    Format version : Version 4
    File size : 1.89 GiB
    Duration : 23 min 56 s
    Overall bit rate : 11.3 Mb/s
    Encoded date : UTC 2023-05-02 08:45:39
    Writing application : mkvmerge v73.0.0 ('25 or 6 to 4') 64-bit
    Writing library : libebml v1.4.4 + libmatroska v1.7.1

    Video
    ID : 1
    Format : HEVC
    Format/Info : High Efficiency Video Coding
    Format profile : Main 10@L4@Main
    Codec ID : V_MPEGH/ISO/HEVC
    Duration : 23 min 56 s
    Bit rate : 11.1 Mb/s
    Width : 1 920 pixels
    Height : 1 080 pixels
    Display aspect ratio : 16:9
    Frame rate mode : Constant
    Frame rate : 23.976 (24000/1001) FPS
    Color space : YUV
    Chroma subsampling : 4:2:0
    Bit depth : 10 bits
    Bits/(Pixel*Frame) : 0.223
    Stream size : 1.85 GiB (98%)
    Title : Vodes Encode
    Writing library : x265 3.5+20-4c4aee0bc:[DJATOM's Mod][Windows][GCC 10.2.1][64 bit] 10bit
    Language : Japanese
    Default : Yes
    Forced : No
    Color range : Limited
    Matrix coefficients : BT.709

    Audio
    ID : 2
    Format : Opus
    Codec ID : A_OPUS
    Duration : 23 min 56 s
    Bit rate : 219 kb/s
    Channel(s) : 2 channels
    Channel layout : L R
    Sampling rate : 48.0 kHz
    Frame rate : 50.000 FPS (960 SPF)
    Compression mode : Lossy
    Stream size : 37.5 MiB (2%)
    Title : Japanese 2.0
    Writing library : Lavf59.4.101
    Language : Japanese
    Default : Yes
    Forced : No

    Text
    ID : 3
    Format : UTF-8
    Codec ID : S_TEXT/UTF8
    Codec ID/Info : UTF-8 Plain Text
    Duration : 23 min 52 s
    Bit rate : 90 b/s
    Frame rate : 0.272 FPS
    Count of elements : 390
    Stream size : 15.9 KiB (0%)
    Title : [Netflix]
    Language : Vietnamese
    Default : Yes
    Forced : No

    IMAGE
    [​IMG]
    [​IMG]
    [​IMG]
    [​IMG]
    [​IMG]
    [​IMG]
    ................::::::BIG THANKS TO::::::.............
    hOilOnG Squad, mochioka, mp12365, miya2791.

    Tải Phim


    Phụ đề Việt Mux sẵn
    Nhấn nút Cảm ơn (dưới chân bài) để thấy link!

    Link Bộ Sưu Tập Anime
    Nhấn nút Cảm ơn (dưới chân bài) để thấy link!



    Inbox: https://t.me/dzankhanh
     
    tonyhungt, nanimami, pepega and 34 others like this.
  2. dzankhanh

    dzankhanh Well-Known Member

    Tham gia ngày:
    9/1/23
    Bài viết:
    291
    Đã được cảm ơn:
    2,255
    Giới tính:
    Nam
    Reup
     

Chia sẻ trang này