[4K REMUX] The Gentlemen 2019 UHD BluRay 2160p TrueHD Atmos 7.1 HEVC REMUX-FraMeSToR

Thảo luận trong 'Bluray Remux 4K' bắt đầu bởi adm820, 11/4/20.

  1. adm820

    adm820 Moderator Thành viên BQT

    Tham gia ngày:
    1/12/10
    Bài viết:
    21,514
    Đã được cảm ơn:
    410,073
    Giới tính:
    Nam
    [​IMG]

    [​IMG]

    Mã:
    General
    Unique ID                      : 164531627809126269793788507212523089840 (0x7BC7A38D9DABD4A26C8570B56A29AFB0)
    
    
    	

    Complete name : D:\The.Gentlemen.2019.UHD.BluRay.2160p.TrueHD.Atmos.7.1.HEVC.REMUX-FraMeSToR\The Gentlemen 4K.mkv

    Format : Matroska Format version : Version 4 File size : 52.8 GiB Duration : 1 h 53 min Overall bit rate mode : Variable Overall bit rate : 66.5 Mb/s Movie name : The Gentlemen 4K Encoded date : UTC 2020-04-11 03:00:21 Writing application : mkvmerge v45.0.0 ('Heaven in Pennies') 64-bit Writing library : libebml v1.3.10 + libmatroska v1.5.2 IMDB : tt8367814 TMDB : movie/522627 Video ID : 1 Format : HEVC Format/Info : High Efficiency Video Coding Format profile : Main [email protected]@High HDR format : SMPTE ST 2086, HDR10 compatible Codec ID : V_MPEGH/ISO/HEVC Duration : 1 h 53 min Bit rate : 62.0 Mb/s Width : 3 840 pixels Height : 2 160 pixels Display aspect ratio : 16:9 Frame rate mode : Constant Frame rate : 23.976 (24000/1001) FPS Color space : YUV Chroma subsampling : 4:2:0 (Type 2) Bit depth : 10 bits Bits/(Pixel*Frame) : 0.312 Stream size : 49.2 GiB (93%) Default : Yes Forced : No Color range : Limited Color primaries : BT.2020 Transfer characteristics : PQ Matrix coefficients : BT.2020 non-constant Mastering display color primar : Display P3 Mastering display luminance : min: 0.0050 cd/m2, max: 1000 cd/m2 Maximum Content Light Level : 940 cd/m2 Maximum Frame-Average Light Le : 819 cd/m2 Audio #1 ID : 2 Format : MLP FBA 16-ch Format/Info : Meridian Lossless Packing FBA with 16-channel presentation Commercial name : Dolby TrueHD with Dolby Atmos Codec ID : A_TRUEHD Duration : 1 h 53 min Bit rate mode : Variable Bit rate : 3 944 kb/s Maximum bit rate : 8 085 kb/s Channel(s) : 8 channels Channel layout : L R C LFE Ls Rs Lb Rb Sampling rate : 48.0 kHz Frame rate : 1 200.000 FPS (40 SPF) Compression mode : Lossless Stream size : 3.13 GiB (6%) Title : TrueHD Atmos 7.1 Language : English Default : Yes Forced : No Number of dynamic objects : 11 Bed channel count : 1 channel Bed channel configuration : LFE Audio #2 ID : 3 Format : AC-3 Format/Info : Audio Coding 3 Commercial name : Dolby Digital Codec ID : A_AC3 Duration : 1 h 53 min Bit rate mode : Constant Bit rate : 448 kb/s Channel(s) : 6 channels Channel layout : L R C LFE Ls Rs Sampling rate : 48.0 kHz Frame rate : 31.250 FPS (1536 SPF) Compression mode : Lossy Stream size : 364 MiB (1%) Title : AC3 5.1 Language : English Service kind : Complete Main Default : No Forced : No Text #1 ID : 4 Format : PGS Muxing mode : zlib Codec ID : S_HDMV/PGS Codec ID/Info : Picture based subtitle format used on BDs/HD-DVDs Duration : 1 h 50 min Bit rate : 65.8 kb/s Count of elements : 4248 Stream size : 52.2 MiB (0%) Title : English (SDH) Language : English Default : No Forced : No Text #2 ID : 5 Format : PGS Muxing mode : zlib Codec ID : S_HDMV/PGS Codec ID/Info : Picture based subtitle format used on BDs/HD-DVDs Duration : 1 h 52 min Bit rate : 51.4 kb/s Count of elements : 3524 Stream size : 41.4 MiB (0%) Title : Spanish (Latin American) Language : Spanish Default : No Forced : No Text #3 ID : 6 Format : UTF-8 Codec ID : S_TEXT/UTF8 Codec ID/Info : UTF-8 Plain Text Duration : 1 h 53 min Bit rate : 121 b/s Count of elements : 1886 Stream size : 101 KiB (0%) Language : Vietnamese Default : Yes Forced : No Menu 00:00:00.000 : en:Chapter 01 00:04:27.100 : en:Chapter 02 00:08:16.413 : en:Chapter 03 00:13:42.780 : en:Chapter 04 00:19:21.494 : en:Chapter 05 00:24:49.988 : en:Chapter 06 00:30:23.530 : en:Chapter 07 00:37:17.944 : en:Chapter 08 00:41:55.430 : en:Chapter 09 00:48:38.874 : en:Chapter 10 00:56:51.199 : en:Chapter 11 01:03:34.102 : en:Chapter 12 01:08:45.038 : en:Chapter 13 01:14:18.204 : en:Chapter 14 01:19:05.991 : en:Chapter 15 01:24:30.023 : en:Chapter 16 01:29:24.776 : en:Chapter 17 01:34:21.114 : en:Chapter 18 01:40:11.130 : en:Chapter 19 01:48:37.511 : en:Chapter 20

    [​IMG]

    [​IMG]

    [​IMG]

    [​IMG]



    Link tải


    (Đã có phụ đề trong phim )

    Nhấn nút Cảm ơn (dưới chân bài) để thấy link!



    Bản 1080p Encode

    [Hài Hước] The Gentlemen 2019 BluRay 1080p Atmos TrueHD 7.1 x265.10bit-CHD ~ Quý Ông Thế Giới Ngầm





     
    shijinhp, LynnNg1962, django and 67 others like this.
  2. huyhoangbui189

    huyhoangbui189 New Member

    Tham gia ngày:
    25/5/15
    Bài viết:
    24
    Đã được cảm ơn:
    14
    Phim này bác có làm ISO không ạ. Để mình đợi luôn.
     
    Vo Hoang Hung cảm ơn bài này.
  3. adm820

    adm820 Moderator Thành viên BQT

    Tham gia ngày:
    1/12/10
    Bài viết:
    21,514
    Đã được cảm ơn:
    410,073
    Giới tính:
    Nam
    có , nhưng chăc phải 2 ngày nữa nó mới nhả
     
  4. nicolasphuong

    nicolasphuong Well-Known Member

    Tham gia ngày:
    14/7/10
    Bài viết:
    1,720
    Đã được cảm ơn:
    7,325
    phim này xem xong chắc xóa,,, chơi bản này đc roài,,,thanks bro
     
  5. adm820

    adm820 Moderator Thành viên BQT

    Tham gia ngày:
    1/12/10
    Bài viết:
    21,514
    Đã được cảm ơn:
    410,073
    Giới tính:
    Nam

    ImDB

    upload_2020-4-12_13-25-56.png
     
  6. nicolasphuong

    nicolasphuong Well-Known Member

    Tham gia ngày:
    14/7/10
    Bài viết:
    1,720
    Đã được cảm ơn:
    7,325
    hì hì,,, phim mẽo cứ bom,súng,ầm ầm mình mới lưu,,, mấy loại khác mình không hay xem lại@@
     

Chia sẻ trang này