[Fshare] [4K| Hành Động] Captain Miller 2024 2160p AMZN WEB-DL DDP5 1 H 265-WADU

Thảo luận trong 'WEB-DL, HDTV 4K' bắt đầu bởi canodinh, 9/2/24.

  1. canodinh

    canodinh Uploader

    Tham gia ngày:
    10/9/11
    Bài viết:
    21,842
    Đã được cảm ơn:
    263,044
    Captain Miller 2024 2160p AMZN WEB-DL DDP5 1 H 265-WADU

    [​IMG]




    Set in 1930s-1940s in British India and follows an outlaw called miller who engages in bloody loots, heists and assaults.



    General
    Unique ID : 274370021985955008676306418683621605430 (0xCE69BE7E8CB1EF4EB3A1BB5BD1DF0036)

    Complete name : Captain.Miller.2024.2160p.AMZN.WEB-DL.DDP5.1.H.265-WADU.mkv

    Format : Matroska
    Format version : Version 4
    File size : 17.0 GiB
    Duration : 2 h 36 min
    Overall bit rate : 15.6 Mb/s
    Writing application : mkvmerge v82.0 ('I'm The President') 64-bit
    Writing library : libebml v1.4.5 + libmatroska v1.7.1

    Video
    ID : 1
    Format : HEVC
    Format/Info : High Efficiency Video Coding
    Format profile : Main@L5@Main
    Codec ID : V_MPEGH/ISO/HEVC
    Duration : 2 h 36 min
    Bit rate : 14.9 Mb/s
    Width : 3 840 pixels
    Height : 2 080 pixels
    Display aspect ratio : 1.85:1
    Original display aspect ratio : 1.85:1
    Frame rate mode : Constant
    Frame rate : 24.000 FPS
    Color space : YUV
    Chroma subsampling : 4:2:0
    Bit depth : 8 bits
    Bits/(Pixel*Frame) : 0.078
    Stream size : 16.3 GiB (96%)
    Default : Yes
    Forced : No
    Color range : Limited
    Color primaries : BT.709
    Transfer characteristics : BT.709
    Matrix coefficients : BT.709

    Audio
    ID : 2
    Format : E-AC-3
    Format/Info : Enhanced AC-3
    Commercial name : Dolby Digital Plus
    Codec ID : A_EAC3
    Duration : 2 h 36 min
    Bit rate mode : Constant
    Bit rate : 640 kb/s
    Channel(s) : 6 channels
    Channel layout : L R C LFE Ls Rs
    Sampling rate : 48.0 kHz
    Frame rate : 31.250 FPS (1536 SPF)
    Compression mode : Lossy
    Stream size : 715 MiB (4%)
    Title : Tamil
    Language : Tamil
    Service kind : Complete Main
    Default : Yes
    Forced : No

    Text #1
    ID : 3
    Format : UTF-8
    Codec ID : S_TEXT/UTF8
    Codec ID/Info : UTF-8 Plain Text
    Duration : 2 h 31 min
    Bit rate : 41 b/s
    Count of elements : 1492
    Stream size : 46.5 KiB (0%)
    Language : English
    Default : No
    Forced : No

    Text #2
    ID : 4
    Format : UTF-8
    Codec ID : S_TEXT/UTF8
    Codec ID/Info : UTF-8 Plain Text
    Duration : 2 h 31 min
    Bit rate : 41 b/s
    Count of elements : 1496
    Stream size : 46.6 KiB (0%)
    Title : SDH
    Language : English
    Default : No
    Forced : No

    Menu
    00:00:00.000 : en:Studio Logo
    00:02:05.000 : en:Scene 2
    00:02:26.000 : en:Scene 3
    00:04:18.000 : en:Scene 4
    00:10:36.000 : en:Title Sequence
    00:10:46.000 : en:Scene 6
    00:18:33.000 : en:Scene 7
    00:25:45.000 : en:Scene 8
    00:32:32.000 : en:Scene 9
    00:40:38.000 : en:Scene 10
    00:41:36.000 : en:Scene 11
    00:49:54.000 : en:Scene 12
    00:55:31.000 : en:Scene 13
    00:58:23.000 : en:Scene 14
    01:06:13.000 : en:Scene 15
    01:13:02.000 : en:Scene 16
    01:19:39.000 : en:Scene 17
    01:23:17.000 : en:Scene 18
    01:25:05.000 : en:Scene 19
    01:25:15.000 : en:Scene 20
    01:32:34.000 : en:Scene 21
    01:39:47.000 : en:Scene 22
    01:47:49.000 : en:Scene 23
    01:56:40.000 : en:Scene 24
    01:57:01.000 : en:Scene 25
    02:01:19.000 : en:Scene 26
    02:07:53.000 : en:Scene 27
    02:10:00.000 : en:Scene 28
    02:17:59.000 : en:Scene 29
    02:23:33.000 : en:Scene 30
    02:27:37.000 : en:Scene 31
    02:31:24.000 : en:End Credits

    Report created by : MediaInfoLib - v21.03

    [​IMG][​IMG][​IMG][​IMG][​IMG]

    General

    Fshare ~17 GB

    Nhấn nút Cảm ơn (dưới chân bài) để thấy link!


    4Share

    Nhấn nút Cảm ơn (dưới chân bài) để thấy link!


    Sub

    https://subscene.com/subtitles/captain-miller

    Tổng hợp phim 18+

    Link topic https://hdvietnam.xyz/threads/mutil...ng-nhat-ban-au-my-cap-nhat-hang-ngay.1796232/
    Nhấn nút Cảm ơn (dưới chân bài) để thấy link!


    Tổng hợp phim full Menu (Thuyết minh+Sub Việt) bluray (nethd.org)

    Nhấn nút Cảm ơn (dưới chân bài) để thấy link!


    Tổng hợp phim bộ Lồng tiếng, thuyết minh, sub việt

    Nhấn nút Cảm ơn (dưới chân bài) để thấy link!


    Tổng hợp phim hàng ngày

    Link topic https://hdvietnam.xyz/threads/tong-hop-phim-bluray-remux-iso-cap-nhat-hang-ngay.1796055/



    Nhấn nút Cảm ơn (dưới chân bài) để thấy link!




    Tổng hợp phim bluray Remux ISO 4K




    Mhd

    720p

    1080p https://www.hdvietnam.xyz/threads/h...-web-dl-ddp-5-1-h-264-telly-sub-viet.1905778/

    4K https://www.hdvietnam.xyz/threads/4...-2160p-amzn-web-dl-ddp5-1-h-265-wadu.1905539/

    Thuyết minh

    Remux

    ISO
     
    Chỉnh sửa cuối: 11/2/24
    romvemot, fts10x, djforit and 14 others like this.
  2. ivy68

    ivy68 Huyền Thoại

    Tham gia ngày:
    29/3/09
    Bài viết:
    11,277
    Đã được cảm ơn:
    19,219
    Nơi ở:
    Hà Nội
    canodinh cảm ơn bài này.

Chia sẻ trang này