[4K DOVI | MP4] Ip Man 4 - The Finale 2019 2160p UHD DV Blu-ray Remux HEVC DTS-HD MA 7.1 - Dovi@3CT

Thảo luận trong 'Bluray Remux 4K' bắt đầu bởi Anh YAM, 16/4/20.

  1. Anh YAM

    Anh YAM Uploader

    Tham gia ngày:
    5/1/19
    Bài viết:
    13,871
    Đã được cảm ơn:
    239,456
    Giới tính:
    Nam
    Ip Man 4 - The Finale 2019 2160p UHD DV Blu-ray Remux HEVC DTS-HD MA 7.1 - Dovi@3CT

    ĐIỆP VẤN 4: HỒI KẾT

    [​IMG]

    [​IMG]


    [​IMG]
    【 IMDb 】
    【Gerne】: Action, Biography, Drama
    【Score】: 7.5/10 from 4,176 votes
    【Link】.: https://www.imdb.com/title/tt2076298/

    ****************************************

    【 Plot 】
    Kết thúc phần 3, Diệp Vấn trở thành "gà trống nuôi con" khi vợ mất vì bệnh ung thư. Phần 4 tiếp tục mạch truyện trước nhưng mốc thời gian là vào năm 1964, lúc này Diệp Vấn đã hơn 70 tuổi. Phát hiện mình bị ung thư thanh quản do nhiều năm hút thuốc, chưởng môn họ Diệp sau đó đã quyết định sang San Francisco (Mỹ) để kiếm trường cho con và dạy võ.

    Thế nhưng người Mỹ lại không hiểu được võ thuật Trung Hoa. Đồng thời chính Diệp Vấn lại bị thử thách nhiều lần ngay trên đất Mỹ, nơi cộng đồng Hoa kiều bị dân Mỹ nhìn với ánh mắt phân biệt.


    ****************************************

    【 Trailer 】




    【 Media Info 】

    PHP:
    GENERAL INFO
    Filename
    ........: Ip Man 4 The Finale 2019 2160p UHD DV Blu-ray Remux HEVC DTS-HD MA 7.1 Dovi@3CT.mp4
    Container
    .......: MPEG-4
    Duration
    ........: 1 h 45 min
    Size
    ............: 44.1 GiB
    Chapter
    .........: No

    VIDEO 
    #1
    Codec...........: HEVC Main L5 10 bits
    Resolution
    ......: 3840x2160
    Aspect ratio
    ....: 16:9
    Bit rate
    ........: 54.8 Mb/s
    Frame rate
    ......: 24.000 fps
    HDR format
    ......: SMPTE ST 2086HDR10 compatible

    VIDEO 
    #2
    Codec...........: HEVC Main L5 10 bits
    Resolution
    ......: 1920x1080
    Aspect ratio
    ....: 16:9
    Bit rate
    ........: 679 kb/s
    Frame rate
    ......: 24.000 fps
    HDR format
    ......: Dolby VisionVersion 1.0dvhe.07.06EL+RPU

    AUDIO
    Format
    ..........: DTS-HD Master Audio
    Channels
    ........: 8 channels
    Bit rate
    ........: 4 534 kb/s
    Language
    ........: Chinese

    SUBTITLES
    ......... : No          
    General
    Complete name : Z:\DOVI\mp4_dv_movie.mp4
    Format : MPEG-4
    Format profile : Base Media
    Codec ID : isom (isom)
    File size : 44.1 GiB
    Duration : 1 h 45 min
    Overall bit rate mode : Variable
    Overall bit rate : 60.0 Mb/s
    Encoded date : UTC 2020-04-16 08:51:23
    Tagged date : UTC 2020-04-16 08:51:23

    Video #1
    ID : 1
    Format : HEVC
    Format/Info : High Efficiency Video Coding
    Format profile : Main [email protected]@High
    HDR format : SMPTE ST 2086, HDR10 compatible
    Codec ID : hev1
    Codec ID/Info : High Efficiency Video Coding
    Duration : 1 h 45 min
    Bit rate : 54.8 Mb/s
    Width : 3 840 pixels
    Height : 2 160 pixels
    Display aspect ratio : 16:9
    Frame rate mode : Constant
    Frame rate : 24.000 FPS
    Color space : YUV
    Chroma subsampling : 4:2:0 (Type 2)
    Bit depth : 10 bits
    Bits/(Pixel*Frame) : 0.275
    Stream size : 40.3 GiB (91%)
    Default : Yes
    Alternate group : 1
    Encoded date : UTC 2020-04-16 08:06:19
    Tagged date : UTC 2020-04-16 08:58:31
    Color range : Limited
    Color primaries : BT.2020
    Transfer characteristics : PQ
    Matrix coefficients : BT.2020 non-constant
    Mastering display color primaries : BT.2020
    Mastering display luminance : min: 0.0001 cd/m2, max: 1000 cd/m2
    Maximum Content Light Level : 630 cd/m2
    Maximum Frame-Average Light Level : 460 cd/m2
    Codec configuration box : hvcC

    Video #2
    ID : 2
    Format : HEVC
    Format/Info : High Efficiency Video Coding
    Format profile : Main [email protected]@High
    HDR format : Dolby Vision, Version 1.0, dvhe.07.06, EL+RPU / SMPTE ST 2086, HDR10 compatible
    Codec ID : hev1
    Codec ID/Info : High Efficiency Video Coding
    Duration : 1 h 45 min
    Bit rate : 679 kb/s
    Width : 1 920 pixels
    Height : 1 080 pixels
    Display aspect ratio : 16:9
    Frame rate mode : Constant
    Frame rate : 24.000 FPS
    Color space : YUV
    Chroma subsampling : 4:2:0 (Type 2)
    Bit depth : 10 bits
    Bits/(Pixel*Frame) : 0.014
    Stream size : 511 MiB (1%)
    Default : No
    Alternate group : 1
    Encoded date : UTC 2020-04-16 08:06:19
    Tagged date : UTC 2020-04-16 08:58:31
    Color range : Limited
    Color primaries : BT.2020
    Transfer characteristics : PQ
    Matrix coefficients : BT.2020 non-constant
    Mastering display color primaries : BT.2020
    Mastering display luminance : min: 0.0001 cd/m2, max: 1000 cd/m2
    Codec configuration box : hvcC+dvcC

    Audio
    ID : 3
    Format : DTS ES XLL
    Format/Info : Digital Theater Systems
    Commercial name : DTS-HD Master Audio
    Codec ID : mp4a-A9
    Duration : 1 h 45 min
    Bit rate mode : Variable
    Bit rate : 4 534 kb/s
    Maximum bit rate : 6 729 kb/s
    Channel(s) : 8 channels
    Channel layout : C L R Ls Rs LFE Lb Rb
    Sampling rate : 48.0 kHz
    Frame rate : 93.750 FPS (512 SPF)
    Bit depth : 24 bits
    Compression mode : Lossless
    Stream size : 3.33 GiB (8%)
    Title : Chinese / DTS-HD Master Audio 7.1
    Language : Chinese
    Default : Yes
    Alternate group : 1
    Tagged date : UTC 2020-04-16 08:58:31
    ****************************************
    [​IMG]
    [​IMG]
    [​IMG]
    [​IMG]
    [​IMG]
    [​IMG]
    [​IMG]

    ****************************************

    [​IMG]

    Nhấn nút Cảm ơn (dưới chân bài) để thấy link!


    PASS: dolby vision - 3 cực cưng


    【 SUBTITLE
    https://subscene.com/subtitles/ip-man-4/vietnamese

    【 OTHERS
    [4K HDR \ REMUX] Ip Man 4: The Finale 2019 2160p UHD BluRay Remux HDR HEVC Atmos - REMUXED

    | thuyết minh & phụ đề việt



    [REMUX] Ip Man 4 The Finale 2019 BluRay 1080p REMUX AVC Atmos TrueHD 7.1- AYA

    | thuyết minh & phụ đề việt



    [ISO] [USA Ver] Ip Man 4 The Finale 2019 BluRay 1080p AVC Atmos TrueHD 7.1 - MTeam



    [​IMG]
     
    Chỉnh sửa cuối: 17/4/20
  2. adm820

    adm820 Moderator Thành viên BQT

    Tham gia ngày:
    1/12/10
    Bài viết:
    21,469
    Đã được cảm ơn:
    409,475
    Giới tính:
    Nam
    Anh YAM cảm ơn bài này.
  3. Anh YAM

    Anh YAM Uploader

    Tham gia ngày:
    5/1/19
    Bài viết:
    13,871
    Đã được cảm ơn:
    239,456
    Giới tính:
    Nam
    do em copy form bài cũ nên khi thay link chữa xóa sạch nên nó dính liên kết bài ISO còn link text là bản mp4
     
    dangvandoan cảm ơn bài này.

Chia sẻ trang này