[1280] - Yao Si Ting

Thảo luận trong 'Nhạc quốc tế' bắt đầu bởi caheo99, 8/3/09.

  1. mienvien

    mienvien New Member

    Tham gia ngày:
    2/3/09
    Bài viết:
    23
    Đã được cảm ơn:
    6
    Ðề: [1280] - Yao Si Ting

    Trong đây có vol 1,2,3,4,5,8. Còn vol VII thì như có bạn đã nói ở trên là file cue bị lỗi ko burn được. Vol VI thì có trong thread audiophile
     
  2. visiontek

    visiontek Member

    Tham gia ngày:
    23/1/09
    Bài viết:
    19
    Đã được cảm ơn:
    5
    Ðề: [1280] - Yao Si Ting

    làm sao để cắt từng track ra vậy?
     
    samuraitruong cảm ơn bài này.
  3. aerislimit

    aerislimit Member

    Tham gia ngày:
    25/11/08
    Bài viết:
    44
    Đã được cảm ơn:
    6
    Ðề: [1280] - Yao Si Ting

    Các bạn đổi tên cái file "CDImage.wav" thành "Ҧ˹æá¶Love7¡·.wav" là xong. Burn hoặc mount vào ổ đĩa ảo ngon lành.
     
  4. royow

    royow Member

    Tham gia ngày:
    22/7/09
    Bài viết:
    39
    Đã được cảm ơn:
    3
    Ðề: [1280] - Yao Si Ting

    Cảm ơn các bác đã chia sẻ..Thực sự rất là phê..
     
  5. Genevara

    Genevara Member

    Tham gia ngày:
    9/2/09
    Bài viết:
    28
    Đã được cảm ơn:
    1
  6. boclf

    boclf New Member

    Tham gia ngày:
    15/6/09
    Bài viết:
    22
    Đã được cảm ơn:
    1
    Ðề: [1280] - Yao Si Ting

    cho m hoi sao album VI ben audiphile jo^'ng album I da down wa day
    bro na`o co full album cua Yao cho m xin
     
  7. metal51

    metal51 New Member

    Tham gia ngày:
    4/10/08
    Bài viết:
    7
    Đã được cảm ơn:
    1
    Ðề: [1280] - Yao Si Ting

    Các bạn để ý là đổi tên file trong file .cue và .ape hay .wav, đừng để tiếng Hoa. Lúc đầu mình split hoài không được, sau đó đổi tên lại và chú ý đổi tên cả trong file .cue. Xong là chạy ngon lành. Xài Medieval CUE Splitter 1.2 và Easy CD-DA Extractor 12 là split hoạc convert ngon lành
     
  8. metal51

    metal51 New Member

    Tham gia ngày:
    4/10/08
    Bài viết:
    7
    Đã được cảm ơn:
    1
  9. khicon1989

    khicon1989 Active Member

    Tham gia ngày:
    11/8/09
    Bài viết:
    225
    Đã được cảm ơn:
    116
    Ðề: [1280] - Yao Si Ting

    Mong các bạn tập hợp lại vào 1 folder mediafire cho dễ kiếm. Thanks. Với lại cho luôn cái Back đi bạn. Nhiều khi không biết nó thuộc album nào.
    Thanks
     
  10. trinhhuuhai

    trinhhuuhai Member

    Tham gia ngày:
    17/11/08
    Bài viết:
    46
    Đã được cảm ơn:
    4
    Giới tính:
    Nam
    Ðề: [1280] - Yao Si Ting

    Bạn chỉ rõ hơn cho mình được không? Mình làm mãi mà không được. Cám ơn bạn nhiều. Bạn nào đi ngang biết cách thực hiện thì chỉ cho mình với nhé.
     
  11. boclf

    boclf New Member

    Tham gia ngày:
    15/6/09
    Bài viết:
    22
    Đã được cảm ơn:
    1
    Ðề: [1280] - Yao Si Ting

    có ai có almum 1 của Yao ko a
     
  12. agreenstone

    agreenstone New Member

    Tham gia ngày:
    1/4/09
    Bài viết:
    25
    Đã được cảm ơn:
    3
    Ðề: [1280] - Yao Si Ting

    YaoSiTing.-.《Love7》(姚斯婷)[WAV] <- cái này đã post ở mấy paste trước đó.
    Nếu cái nào đòi pass thì là: @green
    bonus:
    << tính up lên đây mà chậm quá!
     
  13. hoayeuquai

    hoayeuquai Member

    Tham gia ngày:
    10/7/08
    Bài viết:
    80
    Đã được cảm ơn:
    30
    Ðề: [1280] - Yao Si Ting

    cái cuoi là IV, bác ạ
     
  14. DangThaiSon

    DangThaiSon Member

    Tham gia ngày:
    28/1/09
    Bài viết:
    17
    Đã được cảm ơn:
    1
    Nơi ở:
    ...
    Ðề: [1280] - Yao Si Ting

    Cái này chuẩn nè các bác !
     
  15. hesmands

    hesmands New Member

    Tham gia ngày:
    29/1/09
    Bài viết:
    13
    Đã được cảm ơn:
    24
    Ðề: [1280] - Yao Si Ting

    Các bạn ơi !! mình rất thích nghe Yaositing, mình đã sưu tập đủ vol.1.2.3.4.5 va vol.7 rồi! mình tìm khắp trên google cũng không phát hiện ra vol.6, bạn nào có or biết trang nào up vol.6 cho mình xin địa chỉ với..Xin chân thành cảm ơn!!!
     
  16. ghost1983

    ghost1983 New Member

    Tham gia ngày:
    21/10/08
    Bài viết:
    84
    Đã được cảm ơn:
    18
    Ðề: [1280] - Yao Si Ting

    Thêm cho các bác links RS nè, đang up lên MF và MU
    Mã:
    http://rapidshare.com/files/329044705/Dialogue_VIII.rar
    http://rapidshare.com/files/329059235/Endless_Love_IV.rar
    http://rapidshare.com/files/329075263/Endless_Love_V.rar
    http://rapidshare.com/files/329088272/Toward_To_Sing_Vol.3.rar
    
     
  17. dicklau

    dicklau New Member

    Tham gia ngày:
    3/4/09
    Bài viết:
    32
    Đã được cảm ơn:
    11
    Ðề: [1280] - Yao Si Ting

    Tuần này hoặc tuần sau là em có được nguyên bộ Yao Si Ting gửi về từ Quảng đông nhé.Nếu có Vol 6 em up lên cho bác.
     
  18. ghost1983

    ghost1983 New Member

    Tham gia ngày:
    21/10/08
    Bài viết:
    84
    Đã được cảm ơn:
    18
    Ðề: [1280] - Yao Si Ting

    đây nữa nhé:
    Mã:
    http://rapidshare.com/files/329235748/Love_II.rar
    http://rapidshare.com/files/329239184/_10___Faye_Wong________ae__.ape
    http://rapidshare.com/files/329242241/_-_01.Walking_In_The_Air.ape
    http://rapidshare.com/files/329246159/_-_03.Yesterday_once_more_.ape
    http://rapidshare.com/files/329248504/_-_07.She_Wore_A_Yellow_Ribbon.ape
    http://rapidshare.com/files/329251331/-_02.Unchained_Melody.ape
    http://rapidshare.com/files/329254045/_05.just_when_i_needed_you_most.ape
    http://rapidshare.com/files/329257251/_-_09.Hey_jude.ape
    http://rapidshare.com/files/329259503/__-_04.First_of_May.ape
    http://rapidshare.com/files/329262845/__-_11.I_swear.ape
    http://rapidshare.com/files/329265795/__-_12.Betraya.ape
    http://rapidshare.com/files/329268091/__-_13.Proud_of_You.ape
    http://rapidshare.com/files/329270086/__-_08.Longer.ape
    http://rapidshare.com/files/329272281/10.I_can________t_help_falling_in_love.ape
    
     
  19. sunset_309

    sunset_309 Well-Known Member

    Tham gia ngày:
    6/12/09
    Bài viết:
    922
    Đã được cảm ơn:
    1,347
    Nghề nghiệp:
    Kiến trúc sư
    Nơi ở:
    Tay Ho, Ha Noi, Vietnam, Vietnam
    Ðề: [1280] - Yao Si Ting

    Yao si ting - Endless love VII

    Đây là file cue mình đã chỉnh,chạy ngon lành cành đào,các bạn copy vào notepad,lưu trùng tên với file wav muốn chạy cùng CUE ( ở đây là CDImage,Endless love VII ),chọn mã UTF-8,đổi đuôi *.txt thành *.CUE

    TITLE "CDImage"
    FILE "CDImage.wav" WAVE
    TRACK 01 AUDIO
    TITLE "Woman in love"
    INDEX 01 00:00:00
    TRACK 02 AUDIO
    TITLE "Skellig"
    INDEX 00 04:20:13
    INDEX 01 04:23:12
    TRACK 03 AUDIO
    TITLE "Only love"
    INDEX 00 09:44:01
    INDEX 01 09:47:01
    TRACK 04 AUDIO
    TITLE "Happiness"
    INDEX 00 14:00:39
    INDEX 01 14:03:39
    TRACK 05 AUDIO
    TITLE "Truly madly deeply"
    INDEX 00 18:26:67
    INDEX 01 18:29:66
    TRACK 06 AUDIO
    TITLE "Just one last dance"
    INDEX 00 22:53:11
    INDEX 01 22:56:10
    TRACK 07 AUDIO
    TITLE "At your best"
    INDEX 00 27:13:28
    INDEX 01 27:16:28
    TRACK 08 AUDIO
    TITLE "Last Christmas"
    INDEX 00 32:44:42
    INDEX 01 32:47:42
    TRACK 09 AUDIO
    TITLE "It's not goodbye"
    INDEX 00 36:59:20
    INDEX 01 37:02:19
    TRACK 10 AUDIO
    TITLE "Hallelujah"
    INDEX 00 42:12:63
    INDEX 01 42:15:63
    TRACK 11 AUDIO
    TITLE "Beauty and beast"
    INDEX 00 46:52:19
    INDEX 01 46:55:19
    TRACK 12 AUDIO
    TITLE "Without you"
    INDEX 00 51:07:16
    INDEX 01 51:10:15
    TRACK 13 AUDIO
    TITLE "Love me tender"
    INDEX 00 55:30:00
    INDEX 01 55:33:00
     
  20. sunset_309

    sunset_309 Well-Known Member

    Tham gia ngày:
    6/12/09
    Bài viết:
    922
    Đã được cảm ơn:
    1,347
    Nghề nghiệp:
    Kiến trúc sư
    Nơi ở:
    Tay Ho, Ha Noi, Vietnam, Vietnam
    Ðề: [1280] - Yao Si Ting

    Yao si ting - Endless love VI

    TITLE "Endless love"
    FILE "Endless love.ape" WAVE
    TRACK 01 AUDIO
    TITLE "Sealed with a kiss"
    INDEX 01 00:00:00
    TRACK 02 AUDIO
    TITLE "You are"
    INDEX 00 04:13:69
    INDEX 01 04:15:69
    TRACK 03 AUDIO
    TITLE "Rain and tears"
    INDEX 00 07:33:63
    INDEX 01 07:35:62
    TRACK 04 AUDIO
    TITLE "Green steves"
    INDEX 00 11:13:20
    INDEX 01 11:15:20
    TRACK 05 AUDIO
    TITLE "Do that to me one more time"
    INDEX 00 15:10:44
    INDEX 01 15:12:44
    TRACK 06 AUDIO
    TITLE "I knew i loved you"
    INDEX 00 19:17:65
    INDEX 01 19:19:65
    TRACK 07 AUDIO
    TITLE "Jambalaya"
    INDEX 00 23:35:72
    INDEX 01 23:37:70
    TRACK 08 AUDIO
    TITLE "How could an angel break my heart"
    INDEX 00 28:06:37
    INDEX 01 28:08:37
    TRACK 09 AUDIO
    TITLE "Last walts"
    INDEX 00 32:25:32
    INDEX 01 32:27:32
    TRACK 10 AUDIO
    TITLE "Careless whisper"
    INDEX 00 36:04:03
    INDEX 01 36:06:03
    TRACK 11 AUDIO
    TITLE "Longer"
    INDEX 00 40:32:48
    INDEX 01 40:34:48
    TRACK 12 AUDIO
    TITLE "La isla bonita"
    INDEX 00 45:26:16
    INDEX 01 45:28:15
    TRACK 13 AUDIO
    TITLE "Track13"
    INDEX 00 49:21:47
    INDEX 01 49:23:46
     

Chia sẻ trang này