|1 link| Meet the Robinsons 3D.2007.1080p

Thảo luận trong '3D' bắt đầu bởi trinhquocvinh82, 12/6/12.

  1. trinhquocvinh82

    trinhquocvinh82 Well-Known Member

    Tham gia ngày:
    3/9/09
    Bài viết:
    1,739
    Đã được cảm ơn:
    1,664
    [​IMG][/url][/IMG]
    Mã:
       General
          Unique ID : 211924033947732489247141879943288391277 (0x9F6F15942129FE018DECFB9C1991066D)
          Complete name :Meet the Robinsons 3D.2007.1080p.mkv
    
    
    	

    Format : Matroska

    File size : 6.59 GiB Duration : 1h 35mn Overall bit rate : 9 919 Kbps Movie name : 3D BY PANASONIC - Meet the Robinsons 3D Encoded date : UTC 2011-05-05 01:27:22 Writing application : mkvmerge v2.6.0 ('Kelly watch the Stars') built on Mar 24 2009 15:23:17 Writing library : libebml v0.7.7 + libmatroska v0.8.1 Video #1 ID : 1 Format : AVC Format/Info : Advanced Video Codec Format profile : [email protected] Format settings, CABAC : Yes Format settings, ReFrames : 2 frames Codec ID : V_MPEG4/ISO/AVC Duration : 1h 35mn Bit rate : 8 826 Kbps Width : 1 920 pixels Height : 1 080 pixels Display aspect ratio : 16:9 Frame rate : 23.976 fps Original frame rate : 25.000 fps Color space : YUV Chroma subsampling : 4:2:0 Bit depth : 8 bits Scan type : Progressive Bits/(Pixel*Frame) : 0.178 Stream size : 5.86 GiB (89%) Writing library : x264 core Language : English Color primaries : BT.709-5, BT.1361, IEC 61966-2-4, SMPTE RP177 Transfer characteristics : BT.709-5, BT.1361 Matrix coefficients : BT.709-5, BT.1361, IEC 61966-2-4 709, SMPTE RP177 Audio #2 ID : 2 Format : AC-3 Format/Info : Audio Coding 3 Mode extension : CM (complete main) Codec ID : A_AC3 Duration : 1h 35mn Bit rate mode : Constant Bit rate : 448 Kbps Channel(s) : 6 channels Channel positions : Front: L C R, Side: L R, LFE Sampling rate : 48.0 KHz Bit depth : 16 bits Compression mode : Lossy Delay relative to video : 1s 100ms Stream size : 305 MiB (5%) Language : English Audio #3 ID : 3 Format : AC-3 Format/Info : Audio Coding 3 Mode extension : CM (complete main) Codec ID : A_AC3 Duration : 1h 35mn Bit rate mode : Constant Bit rate : 448 Kbps Channel(s) : 6 channels Channel positions : Front: L C R, Side: L R, LFE Sampling rate : 48.0 KHz Bit depth : 16 bits Compression mode : Lossy Delay relative to video : 1s 100ms Stream size : 305 MiB (5%) Language : Dutch
     
  2. daikabao

    daikabao Member

    Tham gia ngày:
    9/5/11
    Bài viết:
    86
    Đã được cảm ơn:
    1
    Ðề: |1 link| Meet the Robinsons 3D.2007.1080p

    Bạn có audio Việt của phim này không vậy? Phim khá hay nhưng tìm mãi không có thuyết minh tiếng Việt
     
  3. haquanglong85

    haquanglong85 New Member

    Tham gia ngày:
    3/6/12
    Bài viết:
    118
    Đã được cảm ơn:
    5
    Ðề: |1 link| Meet the Robinsons 3D.2007.1080p

    đang tìm phim này. không có phụ đề hả bạn? thanks!
     
  4. goldenman2011

    goldenman2011 New Member

    Tham gia ngày:
    31/8/11
    Bài viết:
    23
    Đã được cảm ơn:
    5
    Ðề: |1 link| Meet the Robinsons 3D.2007.1080p

    thank you so much for sharing
     

Chia sẻ trang này